查看: 111|回复: 0

[欧美] 原抓:《The Scorpion King》2002/WAV/百度

[复制链接]

3082

主题

4257

帖子

55万

积分

音乐主神

Rank: 10Rank: 10Rank: 10

积分
553141

社区QQ达人精华帖达人分享勋章灌水勋章

发表于 2016-11-15 09:59:46 | 显示全部楼层 |阅读模式

注册会员,获得无损资源下载地址,享受高品质音乐。

您需要 登录 才可以下载或查看,没有帐号?注册

x
QQ图片20161114181733.jpg QQ图片20161114181729.jpg QQ图片20161114181750.jpg


          《蝎子王》讲述的是5000年以前那个臭名昭著的戈莫拉城(Gomorrah)里的一位埃及传奇武士的故事。在那里,邪恶的暴君决定要杀死沙漠上所有的游牧平民。几个残余下来的部落虽然以前一直不愿意结盟,眼下则是要么团结起来、要么走向灭亡。他们发现敌军是通过一个巫师的魔法来杀害平民,于是他们聘请了职业刺客摩挲尤斯(Mathayus,“岩石”饰)来清除这个魔法。摩挲尤斯潜入敌营后发现这个巫师原来是一个漂亮的女人(凯莉-胡饰)。于是他并没有杀死她,反而把她带进了大漠深处。摩挲尤斯知道这个暴君的亲信们会不惜一切代价来营救她,并把她带回去。摩挲尤斯在随后的一场战斗中受了重伤,但他必须寻找力量带领那几个拼凑起来的盟邦回到戈莫拉城进行最后的决战。

  故事发生在古埃及的俄摩拉城,残暴的大军阀曼侬手握重兵,称霸一方。城中的其它部落决定组成联盟来一起对付他,于是发动好几次讨伐战争,但是都被曼侬一一击败。原来曼侬身边有一个懂得巫术的神秘人物,她能够预见未来,并以此帮助曼侬作战。得知这一情况后,部落联盟决定派出一名刺客去暗杀这个神秘人物。

  这名刺客就是我们的主角摩挲尤斯(岩石饰),他身强力壮、骁勇善战,是一名真正的勇士。但是当他深入敌后准备暗杀那个神秘人物时,却发现对方原来是一位美丽女人(凯丽·胡饰)。摩挲尤斯被这个名叫卡珊德拉的女人的美貌所深深打动而不忍伤害她,同时,她也得知卡珊德拉并不是自愿为曼侬效力,而是被曼侬挟持。

     善良的摩挲尤斯没有杀害卡珊德拉,他和自己的好友阿皮德偷偷潜入了曼农的城堡,和曼侬展开了生死一搏……

  影片讲的是发生在据今5000多年前的俄摩拉城——某个因为其居民罪孽深重而被神摧毁的臭名昭著的城市的事情。

  曼农是俄摩拉城中一个手握重兵的军阀,他对权利的贪婪欲求使得城里其它的部落如临大敌,为了生存,几个部落联合起来誓与曼农杀个你死我活。屡次交锋之后,部落联盟总是败下阵来,这使众人甚为困惑。原来曼农身边有一个懂得巫术的神秘人物,他能够预见未来,可以以此指导曼农部署作战计划。得知这一情况后,部落联盟决定派出一名刺客执行暗杀巫师的任务。

  摩挲尤斯(“岩石”饰)是勇士阿卡德人部落唯一幸存下来的成员,他身强力壮、骁勇善战,是名不可多得的一流杀手。但俗话总说:“英雄难过美人关”,当摩挲尤斯深入敌后发现神秘的巫师卡珊德拉其实是一个美丽的女人(凯丽•胡饰)时,他犹豫了。一方面,摩挲尤斯被卡珊德拉的美貌所打动不忍心伤害她;另一方面,摩挲尤斯也了解到,卡珊德拉为曼农所做的一切并非自愿,而是在其胁迫和威逼下无奈而为之。所以,摩挲尤斯最终没有动手。

  没完成任务的摩挲尤斯独自逃到一片荒漠,在那里他遇见了盗马贼阿皮德。他们两人以前只有过一面之交,但却在生死存亡的危难关头结下了深厚友谊。这次再度相遇后,摩挲尤斯讲述了自己未完成的使命,阿皮德遂答应帮助他了却杀敌立功的心愿。他指引着摩挲尤斯摸进了曼农的城堡,于是,正义与邪恶的战争就在摩挲尤斯抽出腰间利剑的那一刻开始了……



QQ图片20161114181736.jpg QQ图片20161114181739.jpg QQ图片20161114181741.jpg QQ图片20161114181744.jpg QQ图片20161114181746.jpg QQ图片20161114181748.jpg


       当初买这个原声主要是看到里面的乐队都很吊,Godsmack, Creed, Nickelback, 12 Stone ,P.O.D,Drowning pool , Rob zombie,Mushroomhead各种大牌乐队鼎力加盟。很是不错,希望你们喜欢

专辑曲目:

01 I stand alone
02 Set it off
03 Break you
04 Streamline
05 To whom it may concern
06 Yanking out my heart
07 Losing my grip
08 Only the strong
09 Iron head
10 My life
11 Along the way
12 Breathless
13 Corrected
14 Burn it black
15 27
16 Glow

QQ截图20161114174048.jpg


试听频谱:



QQ截图20161115091522.jpg








Exact Audio Copy V1.3 from 2. September 2016

EAC 抓取日志文件从14. 十一月 2016, 17:48

未知艺术家 / 未知标题

使用驱动器  :PIONEER DVD-RW  DVR-220L   Adapter: 1  ID: 0

读取模式 : 暴发

读取偏移校正:               : 0
读取 Lead-In 和 Lead-Out : 否
用静音填充抓取中丢失偏移的采样       : 是
去除首尾静音块               : 否
在CRC 计算中使用了空样本       : 是
已用接口                  : Win NT 及 2000 本地 Win32 接口
间隙处理                  : 没检测到,因此追加到上一曲目

所用输出模式: : 内部 WAV 函数
样本格式    : 44.100 Hz; 16 Bit; 立体声


已抓取 CD 的 TOC

     音轨 |    起始    |    长度    |  起始扇区  |  结束扇区  
    --------------------------------------------
      1 |  0:00.00 |  4:05.10 |      0 |  18384
      2 |  4:05.10 |  4:10.50 |  18385 |  37184
      3 |  8:15.60 |  2:48.10 |  37185 |  49794
      4 | 11:03.70 |  3:36.18 |  49795 |  66012
      5 | 14:40.13 |  5:09.74 |  66013 |  89261
      6 | 19:50.12 |  3:35.73 |  89262 | 105459
      7 | 23:26.10 |  3:55.45 | 105460 | 123129
      8 | 27:21.55 |  4:17.47 | 123130 | 142451
      9 | 31:39.27 |  4:10.61 | 142452 | 161262
     10 | 35:50.13 |  3:03.32 | 161263 | 175019
     11 | 38:53.45 |  3:17.23 | 175020 | 189817
     12 | 42:10.68 |  4:39.47 | 189818 | 210789
     13 | 46:50.40 |  4:31.03 | 210790 | 231117
     14 | 51:21.43 |  2:42.67 | 231118 | 243334
     15 | 54:04.35 |  3:38.20 | 243335 | 259704
     16 | 57:42.55 |  3:06.10 | 259705 | 273664
     17 | 63:20.65 |  5:52.51 | 285065 | 311515


音轨  1

     文件名 C:\Users\Administrator\Desktop\01 音轨01.wav

     计时问题 0:00:05 - 0:00:07
     可疑位置 0:00:09 - 0:00:43

     峰值电平 99.8 %
     抓取速度 0.7 X
     复制 CRC 02A8A15B
     复制结束

音轨  2

     文件名 C:\Users\Administrator\Desktop\02 音轨02.wav

     峰值电平 91.1 %
     抓取速度 19.1 X
     复制 CRC 7B7F84D7
     复制成功

音轨  3

     文件名 C:\Users\Administrator\Desktop\03 音轨03.wav

     峰值电平 89.0 %
     抓取速度 20.5 X
     复制 CRC 5F92E3F7
     复制成功

音轨  4

     文件名 C:\Users\Administrator\Desktop\04 音轨04.wav

     峰值电平 96.5 %
     抓取速度 21.8 X
     复制 CRC BA254ABC
     复制成功

音轨  5

     文件名 C:\Users\Administrator\Desktop\05 音轨05.wav

     峰值电平 96.5 %
     抓取速度 23.4 X
     复制 CRC 5C60CBEF
     复制成功

音轨  6

     文件名 C:\Users\Administrator\Desktop\06 音轨06.wav

     峰值电平 96.5 %
     抓取速度 24.9 X
     复制 CRC 212CA042
     复制成功

音轨  7

     文件名 C:\Users\Administrator\Desktop\07 音轨07.wav

     峰值电平 89.0 %
     抓取速度 26.2 X
     复制 CRC D5740452
     复制成功

音轨  8

     文件名 C:\Users\Administrator\Desktop\08 音轨08.wav

     峰值电平 96.3 %
     抓取速度 27.4 X
     复制 CRC 3C97C946
     复制成功

音轨  9

     文件名 C:\Users\Administrator\Desktop\09 音轨09.wav

     峰值电平 93.1 %
     抓取速度 28.6 X
     复制 CRC 4076AD81
     复制成功

音轨 10

     文件名 C:\Users\Administrator\Desktop\10 音轨10.wav

     峰值电平 86.0 %
     抓取速度 28.4 X
     复制 CRC 58A097B1
     复制成功

音轨 11

     文件名 C:\Users\Administrator\Desktop\11 音轨11.wav

     峰值电平 84.0 %
     抓取速度 30.5 X
     复制 CRC 3F1156B0
     复制成功

音轨 12

     文件名 C:\Users\Administrator\Desktop\12 音轨12.wav

     峰值电平 99.7 %
     抓取速度 31.7 X
     复制 CRC BE81C056
     复制成功

音轨 13

     文件名 C:\Users\Administrator\Desktop\13 音轨13.wav

     峰值电平 91.1 %
     抓取速度 31.6 X
     复制 CRC 45EC1731
     复制成功

音轨 14

     文件名 C:\Users\Administrator\Desktop\14 音轨14.wav

     峰值电平 96.4 %
     抓取速度 33.6 X
     复制 CRC DB1F404D
     复制成功

音轨 15

     文件名 C:\Users\Administrator\Desktop\15 音轨15.wav

     峰值电平 83.9 %
     抓取速度 34.5 X
     复制 CRC CB2573C2
     复制成功

音轨 16

     文件名 C:\Users\Administrator\Desktop\16 音轨16.wav

     峰值电平 95.2 %
     抓取速度 35.2 X
     复制 CRC 60F455A8
     复制成功

没有错误发生

状态报告结尾

---- CUETools DB Plugin V2.1.6


注:由于口盘年长,再加上盘面孔伤到了第一首歌。第一首Godsmack的 I stand alone 中间略有瑕疵,请各位原谅!其他的歌都没有什么问题。


游客,如果您要查看本帖隐藏内容请回复

评分

参与人数 1CD +240 包子 +5 收起 理由
最终之战 + 240 + 5 很棒的帖子,支持

查看全部评分




上一篇:原抓:Elvis Costello 《The Delivery Man》2004/WAV/百度
下一篇:原抓 : 原野小兵兵《Rugrats Go Wild》2002/WAV/百度
您需要登录后才可以回帖 登录 | 注册

本版积分规则

快速回复 返回顶部 返回列表