查看: 177|回复: 0

[欧美] 原抓:Marilyn Manson《Smells like children》1995/WAV/百度

[复制链接]

3083

主题

4258

帖子

55万

积分

音乐主神

Rank: 10Rank: 10Rank: 10

积分
553397

社区QQ达人精华帖达人分享勋章灌水勋章

发表于 2016-11-14 14:16:01 | 显示全部楼层 |阅读模式

注册会员,获得无损资源下载地址,享受高品质音乐。

您需要 登录 才可以下载或查看,没有帐号?注册

x
QQ截图20161114135834.jpg QQ截图20161114135827.jpg QQ图片20161114140540.jpg QQ截图20161114135848.jpg



表演者: Manson
专辑类型: 专辑
介质: CD
发行时间: 1995
唱片数: 1

曲目时长:54:43


00.jpg



专辑曲目:

1. The Hands of Small Children

2. "Diary of a Dope Fiend" ("Dope Hat" re-record)

3. "Shitty Chicken Gang Bang"

4. "Kiddie Grinder (Remix)" ("Organ Grinder" remix)

5. "Sympathy for the Parents"

6. "Sweet Dreams (Are Made of This)" (Eurythmics cover)

7. "Everlasting Cocksucker (Remix)" ("Cake and Sodomy" remix)

8. "Fvck Frankie"

9. "I Put a Spell on You" (Screamin' Jay Hawkins cover)

10. "May Cause Discoloration of the Urine or Feces"

11. "Scabs, Guns and Peanut Butter"

12. "Dance of the Dope Hats (Remix)" ("Dope Hat" remix, contains samples from "Cake and Sodomy")

13. "White Trash (Remixed by Tony F. Wiggins)" (uses lyrics from "Cake and Sodomy")

14. "Dancing with the One-Legged..."

15. "Rock 'n' Roll Nigger" (Patti Smith cover)

16. "Track 16" (also known as "Untitled" or "Fvcking Children Poom Boom")



----------------------------------------------------------------------------------------------------------------------------
Exact Audio Copy V1.3 from 2. September 2016

EAC 抓取日志文件从14. 十一月 2016, 13:53

未知艺术家 / 未知标题

使用驱动器  :PIONEER DVD-RW  DVR-220L   Adapter: 1  ID: 0

读取模式 : 暴发

读取偏移校正:               : 0
读取 Lead-In 和 Lead-Out : 否
用静音填充抓取中丢失偏移的采样       : 是
去除首尾静音块               : 否
在CRC 计算中使用了空样本       : 是
已用接口                  : Win NT 及 2000 本地 Win32 接口
间隙处理                  : 没检测到,因此追加到上一曲目

所用输出模式: : 内部 WAV 函数
样本格式    : 44.100 Hz; 16 Bit; 立体声


已抓取 CD 的 TOC

     音轨 |    起始    |    长度    |  起始扇区  |  结束扇区  
    --------------------------------------------
      1 |  0:00.00 |  1:34.67 |      0 |   7116
      2 |  1:34.67 |  5:55.68 |   7117 |  33809
      3 |  7:30.60 |  1:19.17 |  33810 |  39751
      4 |  8:50.02 |  4:23.35 |  39752 |  59511
      5 | 13:13.37 |  1:00.53 |  59512 |  64064
      6 | 14:14.15 |  4:53.22 |  64065 |  86061
      7 | 19:07.37 |  5:13.48 |  86062 | 109584
      8 | 24:21.10 |  1:48.15 | 109585 | 117699
      9 | 26:09.25 |  3:36.57 | 117700 | 133956
     10 | 29:46.07 |  3:59.10 | 133957 | 151891
     11 | 33:45.17 |  1:01.20 | 151892 | 156486
     12 | 34:46.37 |  4:39.60 | 156487 | 177471
     13 | 39:26.22 |  2:47.65 | 177472 | 190061
     14 | 42:14.12 |  0:46.05 | 190062 | 193516
     15 | 43:00.17 |  3:31.45 | 193517 | 209386
     16 | 46:31.62 |  8:20.20 | 209387 | 246906


音轨  1

     文件名 C:\Users\Administrator\Desktop\01 音轨01.wav

     计时问题 0:00:02
     计时问题 0:00:06 - 0:00:19

     峰值电平 87.6 %
     抓取速度 0.7 X
     复制 CRC 38D2099B
     复制结束

音轨  2

     文件名 C:\Users\Administrator\Desktop\02 音轨02.wav

     峰值电平 97.6 %
     抓取速度 17.3 X
     复制 CRC 08BEEB6C
     复制成功

音轨  3

     文件名 C:\Users\Administrator\Desktop\03 音轨03.wav

     峰值电平 97.7 %
     抓取速度 18.7 X
     复制 CRC F3F1066B
     复制成功

音轨  4

     文件名 C:\Users\Administrator\Desktop\04 音轨04.wav

     峰值电平 97.6 %
     抓取速度 20.0 X
     复制 CRC A2E3DE7F
     复制成功

音轨  5

     文件名 C:\Users\Administrator\Desktop\05 音轨05.wav

     峰值电平 96.3 %
     抓取速度 20.7 X
     复制 CRC 3B88026D
     复制成功

音轨  6

     文件名 C:\Users\Administrator\Desktop\06 音轨06.wav

     峰值电平 97.6 %
     抓取速度 22.1 X
     复制 CRC D4739D0B
     复制成功

音轨  7

     文件名 C:\Users\Administrator\Desktop\07 音轨07.wav

     峰值电平 97.7 %
     抓取速度 23.8 X
     复制 CRC 27488650
     复制成功

音轨  8

     文件名 C:\Users\Administrator\Desktop\08 音轨08.wav

     峰值电平 87.2 %
     抓取速度 24.7 X
     复制 CRC A495E83C
     复制成功

音轨  9

     文件名 C:\Users\Administrator\Desktop\09 音轨09.wav

     峰值电平 97.7 %
     抓取速度 25.8 X
     复制 CRC 3063AC26
     复制成功

音轨 10

     文件名 C:\Users\Administrator\Desktop\10 音轨10.wav

     峰值电平 69.0 %
     抓取速度 26.9 X
     复制 CRC 97491D62
     复制成功

音轨 11

     文件名 C:\Users\Administrator\Desktop\11 音轨11.wav

     峰值电平 86.6 %
     抓取速度 27.0 X
     复制 CRC 41F7B4E8
     复制成功

音轨 12

     文件名 C:\Users\Administrator\Desktop\12 音轨12.wav

     峰值电平 97.7 %
     抓取速度 28.4 X
     复制 CRC 18A6C5AA
     复制成功

音轨 13

     文件名 C:\Users\Administrator\Desktop\13 音轨13.wav

     峰值电平 97.7 %
     抓取速度 29.3 X
     复制 CRC 4944C8CD
     复制成功

音轨 14

     文件名 C:\Users\Administrator\Desktop\14 音轨14.wav

     峰值电平 97.6 %
     抓取速度 29.0 X
     复制 CRC 6BD45266
     复制成功

音轨 15

     文件名 C:\Users\Administrator\Desktop\15 音轨15.wav

     峰值电平 97.6 %
     抓取速度 30.4 X
     复制 CRC C02C0A3B
     复制成功

音轨 16

     文件名 C:\Users\Administrator\Desktop\16 音轨16.wav

     峰值电平 97.6 %
     抓取速度 32.0 X
     复制 CRC F00E0E6C
     复制成功

没有错误发生

状态报告结尾

---- CUETools DB Plugin V2.1.6

[CTDB TOCID: p7m_b.GgGEWdqiJULlRpYnp3_Eo-] found
Submit result: insufficient quality
Track | CTDB Status
  1   | (  0/106) No match
  2   | (104/106) Accurately ripped
  3   | (106/106) Accurately ripped
  4   | (105/106) Accurately ripped
  5   | (105/106) Accurately ripped
  6   | (105/106) Accurately ripped
  7   | (105/106) Accurately ripped
  8   | (105/106) Accurately ripped
  9   | (104/106) Accurately ripped
10   | (104/106) Accurately ripped
11   | (105/106) Accurately ripped
12   | (102/106) Accurately ripped
13   | (104/106) Accurately ripped
14   | (104/106) Accurately ripped
15   | (105/106) Accurately ripped
16   | ( 61/106) Accurately ripped


QQ截图20161114141042.jpg








游客,如果您要查看本帖隐藏内容请回复





评分

参与人数 1CD +240 包子 +5 收起 理由
最终之战 + 240 + 5 感谢分享资源,CD包因你而精彩.

查看全部评分




上一篇:原抓:UYOPIA《un monde de douceur 》2CD/2002/WAV/百度
下一篇:原抓:Elvis Costello 《The Delivery Man》2004/WAV/百度
您需要登录后才可以回帖 登录 | 注册

本版积分规则

快速回复 返回顶部 返回列表