查看: 124|回复: 0

[欧美] 原抓:UYOPIA《un monde de douceur 》2CD/2002/WAV/百度

[复制链接]

3083

主题

4258

帖子

55万

积分

音乐主神

Rank: 10Rank: 10Rank: 10

积分
553397

社区QQ达人精华帖达人分享勋章灌水勋章

发表于 2016-11-14 10:18:50 | 显示全部楼层 |阅读模式

注册会员,获得无损资源下载地址,享受高品质音乐。

您需要 登录 才可以下载或查看,没有帐号?注册

x
本帖最后由 metal 于 2016-11-14 11:02 编辑

QQ图片20161114092605.jpg QQ图片20161114092559.jpg QQ图片20161114110133.jpg QQ图片20161114110137.jpg QQ图片20161114110143.jpg

表演者: Various Artists
专辑类型: 专辑
介质: CD
发行时间: 2002-09-30
出版者: Decca
唱片数: 2


00.jpg


CD1

01. Gladiator : Now We Are Free (hans Zimmer)
02. Platoon : Adagio For Strings (barber Samuel) (p)
03. Silencium (john Harle)
04. The Deer Hunter : Cavatina (myers)
05. American Beauty : Any Other Name (thomas Newman)
06. Saylon Dola (nigel Hess;russell Watson)
07. The Blue Planet : The Blue Planet (george Fenton)
08. Adagio From Piano Ocncerto In A (mozart Wolfgang Amadeus) (p)
09. An Raibh Tu Ag An Gcarraig (the Chieftains)
10. Song For Athene (tavener John) (p)
11. Captain Corelli’s Mandolin : Pelogia’s Song (stephen Warbeck)
12. Tino Rangatiratanga (jaz Coleman;hinewehi Mohi)
13. Nocturne (rolf Lovland;secret Garden)
14. The Unknown Soldier (the Doors;jaz Coleman;kennedy)
15. Sanctus (p)
16. Pilgrimage (eric Calvi;simon Cloquet)
17. Never (ronan Hardiman)



-------------------------------------------------------------------------------------------------------------------------------------------
00.jpg


CD2

01 The heart asks pleasure first
02 L'heure exquise
03 Libera me
03 Libera me
04 Pavane
05 Main theme from schidler's list
06 Jhon dunbar theme
07 Main theme from braveheart
08 Sanctus from missa luba
09 Gymnopedie NO.1
10 The long way home
11 Raga hameer
12 Kyrie from misa criolla
13 Meditation from thais
14 Gloria
15 Clair de lune
16 My heart will go on
17 Love theme


试听频谱如下:


QQ截图20161114101736.jpg



Exact Audio Copy V1.3 from 2. September 2016

EAC 抓取日志文件从14. 十一月 2016, 9:07

未知艺术家 / 未知标题

使用驱动器  :PIONEER DVD-RW  DVR-220L   Adapter: 1  ID: 0

读取模式 : 暴发

读取偏移校正:               : 0
读取 Lead-In 和 Lead-Out : 否
用静音填充抓取中丢失偏移的采样       : 是
去除首尾静音块               : 否
在CRC 计算中使用了空样本       : 是
已用接口                  : Win NT 及 2000 本地 Win32 接口
间隙处理                  : 没检测到,因此追加到上一曲目

所用输出模式: : 内部 WAV 函数
样本格式    : 44.100 Hz; 16 Bit; 立体声


已抓取 CD 的 TOC

     音轨 |    起始    |    长度    |  起始扇区  |  结束扇区  
    --------------------------------------------
      1 |  0:00.00 |  2:13.50 |      0 |  10024
      2 |  2:13.50 |  3:31.62 |  10025 |  25911
      3 |  5:45.37 |  5:02.51 |  25912 |  48612
      4 | 10:48.13 |  6:14.65 |  48613 |  76727
      5 | 17:03.03 |  5:49.59 |  76728 | 102961
      6 | 22:52.62 |  2:29.71 | 102962 | 114207
      7 | 25:22.58 |  2:52.05 | 114208 | 127112
      8 | 28:14.63 |  3:01.72 | 127113 | 140759
      9 | 31:16.60 |  3:54.74 | 140760 | 158383
     10 | 35:11.59 |  5:42.30 | 158384 | 184063
     11 | 40:54.14 |  3:43.15 | 184064 | 200803
     12 | 44:37.29 |  3:47.19 | 200804 | 217847
     13 | 48:24.48 |  5:42.05 | 217848 | 243502
     14 | 54:06.53 |  3:07.05 | 243503 | 257532
     15 | 57:13.58 |  5:15.26 | 257533 | 281183
     16 | 62:29.09 |  5:33.07 | 281184 | 306165
     17 | 68:02.16 |  4:23.11 | 306166 | 325901


音轨  1

     文件名 C:\Users\Administrator\Desktop\新建文件夹\01 音轨01.wav

     计时问题 0:00:04
     计时问题 0:00:06 - 0:00:07

     峰值电平 67.5 %
     抓取速度 7.1 X
     复制 CRC A4DE0E7F
     复制结束

音轨  2

     文件名 C:\Users\Administrator\Desktop\新建文件夹\02 音轨02.wav

     峰值电平 29.2 %
     抓取速度 18.2 X
     复制 CRC 8F19D661
     复制成功

音轨  3

     文件名 C:\Users\Administrator\Desktop\新建文件夹\03 音轨03.wav

     峰值电平 88.4 %
     抓取速度 20.0 X
     复制 CRC E1832D0C
     复制成功

音轨  4

     文件名 C:\Users\Administrator\Desktop\新建文件夹\04 音轨04.wav

     峰值电平 89.7 %
     抓取速度 22.2 X
     复制 CRC 137CC458
     复制成功

音轨  5

     文件名 C:\Users\Administrator\Desktop\新建文件夹\05 音轨05.wav

     峰值电平 66.1 %
     抓取速度 24.3 X
     复制 CRC B17129CC
     复制成功

音轨  6

     文件名 C:\Users\Administrator\Desktop\新建文件夹\06 音轨06.wav

     峰值电平 67.6 %
     抓取速度 25.4 X
     复制 CRC 0DE51E72
     复制成功

音轨  7

     文件名 C:\Users\Administrator\Desktop\新建文件夹\07 音轨07.wav

     峰值电平 94.4 %
     抓取速度 26.3 X
     复制 CRC E670537F
     复制成功

音轨  8

     文件名 C:\Users\Administrator\Desktop\新建文件夹\08 音轨08.wav

     峰值电平 99.9 %
     抓取速度 27.2 X
     复制 CRC 460EBE71
     复制成功

音轨  9

     文件名 C:\Users\Administrator\Desktop\新建文件夹\09 音轨09.wav

     峰值电平 49.0 %
     抓取速度 28.3 X
     复制 CRC 9C59D563
     复制成功

音轨 10

     文件名 C:\Users\Administrator\Desktop\新建文件夹\10 音轨10.wav

     峰值电平 70.4 %
     抓取速度 29.6 X
     复制 CRC 09867647
     复制成功

音轨 11

     文件名 C:\Users\Administrator\Desktop\新建文件夹\11 音轨11.wav

     峰值电平 92.7 %
     抓取速度 30.8 X
     复制 CRC 4F24B732
     复制成功

音轨 12

     文件名 C:\Users\Administrator\Desktop\新建文件夹\12 音轨12.wav

     峰值电平 67.3 %
     抓取速度 31.8 X
     复制 CRC 7E1E8B61
     复制成功

音轨 13

     文件名 C:\Users\Administrator\Desktop\新建文件夹\13 音轨13.wav

     峰值电平 98.5 %
     抓取速度 33.0 X
     复制 CRC 4058E00F
     复制成功

音轨 14

     文件名 C:\Users\Administrator\Desktop\新建文件夹\14 音轨14.wav

     峰值电平 63.3 %
     抓取速度 34.0 X
     复制 CRC 5D11912A
     复制成功

音轨 15

     文件名 C:\Users\Administrator\Desktop\新建文件夹\15 音轨15.wav

     峰值电平 71.5 %
     抓取速度 35.0 X
     复制 CRC 355A38D3
     复制成功

音轨 16

     文件名 C:\Users\Administrator\Desktop\新建文件夹\16 音轨16.wav

     峰值电平 70.1 %
     抓取速度 36.2 X
     复制 CRC 9F1BABAB
     复制成功

音轨 17

     文件名 C:\Users\Administrator\Desktop\新建文件夹\17 音轨17.wav

     峰值电平 78.2 %
     抓取速度 37.2 X
     复制 CRC F8CF195D
     复制成功

没有错误发生

状态报告结尾

---- CUETools DB Plugin V2.1.6

[CTDB TOCID: NDZmcG72LrfcNQq_ZpS4jqvMlpE-] found
Submit result: NDZmcG72LrfcNQq_ZpS4jqvMlpE- has been confirmed
Track | CTDB Status
  1   | (1/6) Accurately ripped
  2   | (1/6) Accurately ripped
  3   | (1/6) Accurately ripped
  4   | (1/6) Accurately ripped
  5   | (1/6) Accurately ripped
  6   | (1/6) Accurately ripped
  7   | (1/6) Accurately ripped
  8   | (1/6) Accurately ripped
  9   | (1/6) Accurately ripped
10   | (1/6) Accurately ripped
11   | (1/6) Accurately ripped
12   | (1/6) Accurately ripped
13   | (1/6) Accurately ripped
14   | (1/6) Accurately ripped
15   | (1/6) Accurately ripped
16   | (1/6) Accurately ripped
17   | (1/6) Accurately ripped






游客,如果您要查看本帖隐藏内容请回复

评分

参与人数 1CD +400 包子 +10 收起 理由
最终之战 + 400 + 10 感谢分享资源,CD包因你而精彩.

查看全部评分




上一篇:原抓:B.A.D《B.A.D》同名专辑升级庆功版(台版)/WAV/百度
下一篇:原抓:Marilyn Manson《Smells like children》1995/WAV/百度
您需要登录后才可以回帖 登录 | 注册

本版积分规则

快速回复 返回顶部 返回列表