查看: 229|回复: 5

[LIVE] Lady Gaga • A-YO + Million Reasons (Saturday Night Live)2016 HDTV1080i

[复制链接]
 成长值: 19620

6514

主题

1万

帖子

8万

积分

音乐掌门人

Rank: 20Rank: 20Rank: 20Rank: 20Rank: 20

积分
84207

名人勋章社区QQ达人分享勋章精华帖达人灌水勋章

发表于 2016-11-2 16:38:18 | 显示全部楼层 |阅读模式

注册会员,获得无损资源下载地址,享受高品质音乐。

您需要 登录 才可以下载或查看,没有帐号?注册

x
info.jpg
Lady Gaga
A-YO + Million Reasons
thumbs20161102163502.jpg
thumbs20161102163523.jpg
General
ID                             : 1 (0x1)
Complete name                  : L:\Lady Gaga - A-YO + Million Reasons (Saturday Night Live S42E04 22 Oct 2016).ts
Format                         : MPEG-TS
File size                      : 646 MiB
Duration                       : 7mn 43s
Overall bit rate mode          : Variable
Overall bit rate               : 11.7 Mbps
Maximum Overall bit rate       : 35.5 Mbps
Movie name                     : Saturday Night Live
Law rating                     : TV-14 (DL)
Video
ID                             : 4113 (0x1011)
Menu ID                        : 1 (0x1)
Format                         : MPEG Video
Format version                 : Version 2
Format profile                 : [email protected]
Format settings, BVOP          : Yes
Format settings, Matrix        : Custom
Format settings, GOP           : Variable
Format settings, picture struc : Frame
Codec ID                       : 2
Duration                       : 7mn 43s
Bit rate mode                  : Variable
Bit rate                       : 10.6 Mbps
Maximum bit rate               : 24.0 Mbps
Width                          : 1 920 pixels
Height                         : 1 080 pixels
Display aspect ratio           : 16:9
Active Format Description      : Full frame 16:9 image
Frame rate                     : 29.970 fps
Color space                    : YUV
Chroma subsampling             : 4:2:0
Bit depth                      : 8 bits
Scan type                      : Interlaced
Scan order                     : Top Field First
Compression mode               : Lossy
Bits/(Pixel*Frame)             : 0.171
Time code of first frame       : 00:34:09;16
Time code source               : Group of pictures header
Stream size                    : 587 MiB (91%)
Audio #1
ID                             : 4352 (0x1100)
Menu ID                        : 1 (0x1)
Format                         : AC-3
Format/Info                    : Audio Coding 3
Mode extension                 : CM (complete main)
Format settings, Endianness    : Big
Codec ID                       : 129
Duration                       : 7mn 43s
Bit rate mode                  : Constant
Bit rate                       : 384 Kbps
Channel(s)                     : 6 channels
Channel positions              : Front: L C R, Side: L R, LFE
Sampling rate                  : 48.0 KHz
Compression mode               : Lossy
Delay relative to video        : 2ms
Stream size                    : 21.2 MiB (3%)
Language                       : English
Audio #2
ID                             : 4353 (0x1101)
Menu ID                        : 1 (0x1)
Format                         : AC-3
Format/Info                    : Audio Coding 3
Mode extension                 : CM (complete main)
Format settings, Endianness    : Big
Codec ID                       : 129
Duration                       : 7mn 43s
Bit rate mode                  : Constant
Bit rate                       : 96.0 Kbps
Channel(s)                     : 2 channels
Channel positions              : Front: L R
Sampling rate                  : 48.0 KHz
Compression mode               : Lossy
Delay relative to video        : 30ms
Stream size                    : 5.30 MiB (1%)
Language                       : Spanish

===============================
百度下载(音乐共享精神)
游客,如果您要查看本帖隐藏内容请回复
来自群组: 欧美流行



上一篇:Lady Gaga • Dive Bar Tour • The 5 Spot (Nashville, TN) 2016 HDTV 720p 5.18G
下一篇:周传雄《记事本+出卖》480P/MP4/18M+19M/百度
关于链接失效的说明(度盘+115盘+快传 好友分享的说明)
http://www.cdbao.net/thread-117499-1-1.html     
紧急通告:115,快传等网盘取消了分享功能礼包码链接全部失效
http://www.cdbao.net/thread-122759-1-1.html

0

主题

9

帖子

68

积分

新人会员,请认真回复,若恶意回复,直接封号

Rank: 1

积分
68
发表于 2016-11-5 23:19:06 | 显示全部楼层
GAGA女神!!!谢谢楼主!
 成长值: 140

0

主题

128

帖子

992

积分

VIP1

Rank: 4

积分
992
发表于 2016-11-8 06:14:10 | 显示全部楼层
谢谢你太感谢您了·····························

0

主题

31

帖子

88

积分

新人会员,请认真回复,若恶意回复,直接封号

Rank: 1

积分
88
发表于 2016-11-9 10:35:27 | 显示全部楼层
thanks very for kindly sharing!

0

主题

72

帖子

161

积分

乐坛新星

Rank: 2

积分
161
发表于 2016-11-10 15:33:35 | 显示全部楼层
感谢楼主分享,看能下吗?

2

主题

179

帖子

379

积分

乐坛新星

Rank: 2

积分
379

社区QQ达人

发表于 2016-11-19 16:44:13 | 显示全部楼层
女神女神女神!!感谢楼主的无私分享
您需要登录后才可以回帖 登录 | 注册

本版积分规则

快速回复 返回顶部 返回列表