查看: 415|回复: 11

Britney Spears《In The Zone》DVD Audio Series 5.1 Surround 24bit 88.2kHz 2003

[复制链接]
 成长值: 19665

6547

主题

1万

帖子

8万

积分

音乐掌门人

Rank: 20Rank: 20Rank: 20Rank: 20Rank: 20

积分
84446

名人勋章社区QQ达人分享勋章精华帖达人灌水勋章

发表于 2016-10-18 10:00:16 | 显示全部楼层 |阅读模式


Britney Spears / In The Zone

Формат записи/Источник записи: [DVDA][TR24]
Наличие водяных знаков: Нет
Издание: DVD Audio Series
Год издания/переиздания диска: 2003
Жанр: Pop
Издатель(лейбл): Jive / Sony Music Entertainment
Продолжительность: 00:49:57
Наличие сканов в содержимом раздачи: Нет
Контейнер: FLAC (*.flac)
Тип рипа: tracks
Разрядность: 24/88,2
Формат: FLAC
Количество каналов: 5.1
Источник (релизер): Amazon

Britney Spears - In The Zone (DVD Audio Series)(5.1 Surround) [24bit 88.2kHz][DVDA][TR24] 2003 2.48 GB
01 Me Against The Music.flac        215.17 MB
02 (I Got That) Boom Boom.flac        237.58 MB
03 Showdown.flac        155.21 MB
04 Breathe On Me.flac        174.96 MB
05 Early Mornin'.flac        204.93 MB
06 Toxic.flac        161.65 MB
07 Outrageous.flac        157.64 MB
08 Touch Of My Hand.flac        233.47 MB
09 The Hook Up.flac        203.34 MB
10 Shadow.flac        203.15 MB
11 Brave New Girl.flac        184.34 MB
12 Everytime.flac        149.21 MB
13 Me Against The Music (Rishi Rich's Desi Kulcha Remix).flac        255.02 MB


========================================================
foobar2000 1.3.9 / Замер динамического диапазона (DR) 1.1.1
Дата отчёта:  2016-01-08 15:27:05
--------------------------------------------------------------------------------
Анализ:   Britney Spears Feat. Madonna / In The Zone (1-2)
          Britney Spears Feat. Ying Yang Twins / In The Zone (3)
          Britney Spears / In The Zone (4-13)
--------------------------------------------------------------------------------
DR         Пики         RMS           Продолжительность трека
--------------------------------------------------------------------------------
DR13      -1.51 дБ   -16.88 дБ      3:44 01-Me Against The Music
DR12      -1.51 дБ   -14.11 дБ      4:31 13-Me Against The Music (Rishi Rich's Desi Kulcha Remix)
DR11      -1.51 дБ   -15.14 дБ      4:51 02-(I Got That) Boom Boom
DR13      -1.51 дБ   -15.95 дБ      3:18 03-Showdown
DR8       -2.45 дБ   -13.37 дБ      3:48 04-Breathe On Me
DR11      -1.51 дБ   -15.62 дБ      3:47 05-Early Mornin'
DR12      -1.51 дБ   -16.71 дБ      3:21 06-Toxic
DR11      -1.51 дБ   -15.57 дБ      3:21 07-Outrageous
DR13      -1.51 дБ   -13.44 дБ      4:19 08-Touch Of My Hand
DR11      -1.51 дБ   -15.59 дБ      3:54 09-The Hook Up
DR12      -1.51 дБ   -16.17 дБ      3:47 10-Shadow
DR11      -1.51 дБ   -16.73 дБ      3:31 11-Brave New Girl
DR11      -3.68 дБ   -18.46 дБ      3:52 12-Everytime
--------------------------------------------------------------------------------
Количество треков: 13
Реальные значения DR: DR12
Частота:   88200 Гц
Каналов:   6
Разрядность:   24
Битрейт:   5392 кбит/с
Кодек:   FLAC

=================================================
360云盘(最终金属仓库)
游客,如果您要查看本帖隐藏内容请回复


来自群组: 欧美流行

本帖子中包含更多资源

您需要 登录 才可以下载或查看,没有帐号?注册

x



上一篇:bule note 75张 24bit/192khz 蓝色AK240限定版CD
下一篇:Madonna- American Life-2003/德国版/APE/百度
关于链接失效的说明(度盘+115盘+快传 好友分享的说明)
http://www.cdbao.net/thread-117499-1-1.html     
紧急通告:115,快传等网盘取消了分享功能礼包码链接全部失效
http://www.cdbao.net/thread-122759-1-1.html
 成长值: 19665

6547

主题

1万

帖子

8万

积分

音乐掌门人

Rank: 20Rank: 20Rank: 20Rank: 20Rank: 20

积分
84446

名人勋章社区QQ达人分享勋章精华帖达人灌水勋章

发表于 2016-10-18 10:01:01 | 显示全部楼层
@吾哩杰杰

你要的,来收吧!!!

关于链接失效的说明(度盘+115盘+快传 好友分享的说明)
http://www.cdbao.net/thread-117499-1-1.html     
紧急通告:115,快传等网盘取消了分享功能礼包码链接全部失效
http://www.cdbao.net/thread-122759-1-1.html

0

主题

13

帖子

97

积分

新人会员,请认真回复,若恶意回复,直接封号

Rank: 1

积分
97
发表于 2016-10-18 11:24:17 | 显示全部楼层
这是初中的时候最喜欢的专辑,当时选了里面好多歌还做了舞蹈编排,看到有下载必须要支持一个!感谢楼主分享!

评分

参与人数 1CD +20 收起 理由
最终之战 + 20 认真回帖,给予加分奖励

查看全部评分

1

主题

43

帖子

106

积分

新人会员,请认真回复,若恶意回复,直接封号

Rank: 1

积分
106
发表于 2016-10-18 12:37:03 | 显示全部楼层
下来听听!!!!!!!!!!!!!!!!!!!!!!!!!!!!{:7_191:}

0

主题

73

帖子

183

积分

乐坛新星

Rank: 2

积分
183

社区QQ达人

发表于 2016-10-18 13:22:03 | 显示全部楼层
謝謝大大的熱心分享{:7_199:}{:7_199:}{:7_199:}

0

主题

187

帖子

339

积分

乐坛新星

Rank: 2

积分
339

社区QQ达人

发表于 2016-10-18 13:49:51 | 显示全部楼层
感谢分享,来听听!!!!!!!

3

主题

14

帖子

383

积分

乐坛新星

Rank: 2

积分
383
发表于 2016-10-18 18:41:13 | 显示全部楼层
谢谢 热心人  ~~~~~~~~~~~~~~~~~~~~~~~~~~~~

2

主题

783

帖子

971

积分

职业歌手

Rank: 3Rank: 3

积分
971

社区QQ达人

发表于 2016-10-18 21:19:04 | 显示全部楼层
哈哈,终于找到24BIT的了,虽然很大,但是很值得。

1

主题

217

帖子

458

积分

职业歌手

Rank: 3Rank: 3

积分
458
发表于 2016-10-18 21:55:31 | 显示全部楼层
谢谢楼主分享,谢谢楼主好碟!!!

0

主题

3

帖子

67

积分

新人会员,请认真回复,若恶意回复,直接封号

Rank: 1

积分
67

社区QQ达人

发表于 2016-10-20 20:35:52 | 显示全部楼层
好听。放在车上不错的
好听。放在车上不错的

2

主题

30

帖子

38

积分

新人会员,请认真回复,若恶意回复,直接封号

Rank: 1

积分
38
发表于 2016-10-24 00:30:18 | 显示全部楼层
Britney Spears《In The Zone》DVD Audio Series 5.1 Surround 24bit 88.2kHz 2003

1

主题

908

帖子

1261

积分

职业歌手

Rank: 3Rank: 3

积分
1261

社区QQ达人

发表于 2016-10-25 22:13:14 | 显示全部楼层
5.1的,还是DVD,第一次下这个东西,谢谢!
您需要登录后才可以回帖 登录 | 注册

本版积分规则

快速回复 返回顶部 返回列表