查看: 218|回复: 5

[MV] Jennifer Lopez & Taylor Swift - Jenny From the Block/2013/1080P/TS/BD

[复制链接]
 成长值: 19605

6487

主题

1万

帖子

8万

积分

音乐掌门人

Rank: 20Rank: 20Rank: 20Rank: 20Rank: 20

积分
83930

名人勋章社区QQ达人分享勋章精华帖达人灌水勋章

发表于 2016-7-21 18:01:58 | 显示全部楼层 |阅读模式

注册会员,获得无损资源下载地址,享受高品质音乐。

您需要 登录 才可以下载或查看,没有帐号?注册

x
1.jpg
2.jpg
Taylor Swift & Jennifer Lopez - Jenny From the Block

Жанр: Pop
Продолжительность: 05:59
Год выпуска: 2013Описание: Taylor Swift and Jennifer Lopez perform "Jenny from the Block" live at Taylor's sold out concert at Staples Center in Los Angeles on August 24, 2013.Качество: Master
Контейнер: TS
Видео кодек: H.264
Аудио кодек: PCM
Видео: AVC (H.264), 1920x1080p, 29.97 fps, 9 897 Kbps
Аудио: PCM, 48.0 KHz, 1 536 Kbps (2 Ch.)



Отчёт MediaInfo / BDInfo

General
Complete name                            : C:\Users\admin\Desktop\Taylor Swift & Jennifer Lopez - Jenny From the Block (New Intro) Lpcm Master 1080p H264.ts
Format                                   : QuickTime
Format/Info                              : Original Apple specifications
File size                                : 490 MiB
Duration                                 : 5mn 59s
Overall bit rate                         : 11.4 Mbps
Encoded date                             : UTC 2013-09-10 03:48:24
Tagged date                              : UTC 2013-09-10 03:58:30
Writing library                          : Apple QuickTime
Video
ID                                       : 1
Format                                   : AVC
Format/Info                              : Advanced Video Codec
Format profile                           : [email protected]
Format settings, CABAC                   : No
Format settings, ReFrames                : 2 frames
Codec ID                                 : avc1
Codec ID/Info                            : Advanced Video Coding
Duration                                 : 5mn 59s
Bit rate                                 : 9 897 Kbps
Width                                    : 1 920 pixels
Height                                   : 1 080 pixels
Display aspect ratio                     : 16:9
Frame rate mode                          : Constant
Frame rate                               : 29.970 fps
Color space                              : YUV
Chroma subsampling                       : 4:2:0
Bit depth                                : 8 bits
Scan type                                : Progressive
Bits/(Pixel*Frame)                       : 0.159
Stream size                              : 424 MiB (87%)
Language                                 : English
Encoded date                             : UTC 2013-09-10 03:48:24
Tagged date                              : UTC 2013-09-10 03:58:30
Color primaries                          : BT.709
Transfer characteristics                 : BT.709
Matrix coefficients                      : BT.709
Audio
ID                                       : 2
Format                                   : PCM
Format settings, Endianness              : Big
Format settings, Sign                    : Signed
Codec ID                                 : twos
Duration                                 : 5mn 59s
Bit rate mode                            : Constant
Bit rate                                 : 1 536 Kbps
Channel(s)                               : 2 channels
Sampling rate                            : 48.0 KHz
Bit depth                                : 16 bits
Stream size                              : 65.9 MiB (13%)
Language                                 : English
Encoded date                             : UTC 2013-09-10 03:48:24
Tagged date                              : UTC 2013-09-10 03:58:30

============================
百度下载(阿战无损存储)
游客,如果您要查看本帖隐藏内容请回复



上一篇:Jennifer Lopez & Ricky Martin feat.Wisin - Adrenalina/2014/MOV/1080P/BD
下一篇:以色列女鼓手Meytal Cohen//Drum Covers/MP4/HD/BD
关于链接失效的说明(度盘+115盘+快传 好友分享的说明)
http://www.cdbao.net/thread-117499-1-1.html     
紧急通告:115,快传等网盘取消了分享功能礼包码链接全部失效
http://www.cdbao.net/thread-122759-1-1.html

0

主题

74

帖子

177

积分

乐坛新星

Rank: 2

积分
177

社区QQ达人

发表于 2016-7-21 21:52:32 | 显示全部楼层
好东西 一定要顶
要下的 为什么要洗这么长

0

主题

53

帖子

117

积分

新人会员,请认真回复,若恶意回复,直接封号

Rank: 1

积分
117
发表于 2016-8-8 16:54:59 | 显示全部楼层
泰勒 和Jennifer 真的很好  不错  看着就养眼啊

1

主题

180

帖子

596

积分

职业歌手

Rank: 3Rank: 3

积分
596
发表于 2016-8-22 15:43:21 来自手机 | 显示全部楼层
洛佩斯和泰勒的有点意思。。。。。。

0

主题

6

帖子

68

积分

新人会员,请认真回复,若恶意回复,直接封号

Rank: 1

积分
68
发表于 2016-10-8 15:04:30 | 显示全部楼层
非常喜欢泰勒斯威夫特!感谢提供这么好的资源
 成长值: 130

0

主题

128

帖子

990

积分

VIP1

Rank: 4

积分
990
发表于 2016-11-15 06:25:39 | 显示全部楼层
谢谢你太感谢您了····················
您需要登录后才可以回帖 登录 | 注册

本版积分规则

快速回复 返回顶部 返回列表