查看: 7181|回复: 21
打印 上一主题 下一主题

[LIVE] 蒙面歌王:谭维维《野草 一生所爱》1080i/MKV/352M/百度云

[复制链接]

4

主题

50

帖子

794

积分

职业歌手

Rank: 3Rank: 3

积分
794

社区QQ达人

跳转到指定楼层
1#
发表于 2016-6-22 17:46:50 | 只看该作者 |只看大图 回帖奖励 |倒序浏览 |阅读模式

注册会员,获得无损资源下载地址,享受高品质音乐。

您需要 登录 才可以下载或查看,没有帐号?注册

x
蒙面歌王:谭维维《野草 一生所爱》1080i/MKV/352M/百度云
General
Unique ID                      : 227072587676193083106822222385568958637 (0xAAD496F10ABA7A3DB4E06A8D807E48AD)
Complete name                  : 一生所爱.mkv
Format                         : Matroska
Format version                 : Version 1
File size                      : 352 MiB
Duration                       : 5mn 17s
Overall bit rate               : 9 303 Kbps
Encoded date                   : UTC 2016-06-15 05:24:43
Writing application            : AVSMatroskaFile
Writing library                : libebml v0.7.7 + libmatroska v0.8.1
Video
ID                             : 1
Format                         : AVC
Format/Info                    : Advanced Video Codec
Format profile                 : Main@L5.1
Format settings, CABAC         : Yes
Format settings, ReFrames      : 2 frames
Codec ID                       : V_MPEG4/ISO/AVC
Duration                       : 5mn 17s
Bit rate                       : 8 862 Kbps
Width                          : 1 920 pixels
Height                         : 1 080 pixels
Display aspect ratio           : 16:9
Frame rate mode                : Constant
Frame rate                     : 25.000 fps
Color space                    : YUV
Chroma subsampling             : 4:2:0
Bit depth                      : 8 bits
Scan type                      : Progressive
Bits/(Pixel*Frame)             : 0.171
Stream size                    : 335 MiB (95%)
Default                        : Yes
Forced                         : No
Audio
ID                             : 2
Format                         : MPEG Audio
Format version                 : Version 1
Format profile                 : Layer 3
Codec ID                       : A_MPEG/L3
Codec ID/Hint                  : MP3
Duration                       : 5mn 17s
Bit rate mode                  : Constant
Bit rate                       : 256 Kbps
Channel(s)                     : 2 channels
Sampling rate                  : 44.1 KHz
Compression mode               : Lossy
Stream size                    : 9.69 MiB (3%)
Default                        : Yes
Forced                         : No


下载地址:
游客,如果您要查看本帖隐藏内容请回复

评分

参与人数 1CD +80 包子 +1 收起 理由
CDbao + 80 + 1 感谢分享资源,CD包因你而精彩.

查看全部评分




上一篇:我是歌手:关喆《悟空》1080i/MKV/361M/百度云
下一篇:Major Lazer ft. Nyla & Fuse ODG《Light it Up》(Remix)MP4/BD
分享到:  QQ好友和群QQ好友和群 QQ空间QQ空间 腾讯微博腾讯微博 腾讯朋友腾讯朋友
收藏收藏 分享淘帖 厉害厉害 一般一般

0

主题

52

帖子

116

积分

新人会员,请认真回复,若恶意回复,直接封号

Rank: 1

积分
116
2#
发表于 2016-6-22 20:32:05 | 只看该作者
深情的情歌!!神秘的女主角!!

0

主题

85

帖子

150

积分

乐坛新星

Rank: 2

积分
150

社区QQ达人

3#
发表于 2016-6-24 23:05:20 | 只看该作者
精选最受欢迎女歌手年度畅销热曲
感人的歌声,总敲打着午夜寂寥的心……

0

主题

113

帖子

160

积分

乐坛新星

Rank: 2

积分
160

社区QQ达人

4#
发表于 2016-7-6 16:52:10 | 只看该作者
不错,非常好喜欢听谭维维的歌

0

主题

48

帖子

104

积分

新人会员,请认真回复,若恶意回复,直接封号

Rank: 1

积分
104
5#
发表于 2016-7-13 12:39:35 | 只看该作者
大爱这个,谢谢楼主!这么好的资源共享了。

0

主题

7

帖子

61

积分

新人会员,请认真回复,若恶意回复,直接封号

Rank: 1

积分
61
6#
发表于 2016-8-9 18:47:08 | 只看该作者
蒙面歌王:谭维维《野草 一生所爱》1080i/MKV/352M

0

主题

158

帖子

-71

积分

恶意回复被扣没分了,积分增加方法见置顶帖

积分
-71
7#
发表于 2016-8-16 00:51:44 | 只看该作者
蒙面歌王:谭维维《野草 一生所爱》

0

主题

274

帖子

135

积分

新人会员,请认真回复,若恶意回复,直接封号

Rank: 1

积分
135

社区QQ达人

8#
发表于 2016-8-24 14:48:33 | 只看该作者
谭维维《野草 一生所爱谭维维《野草 一生所爱

0

主题

76

帖子

218

积分

乐坛新星

Rank: 2

积分
218
9#
发表于 2016-9-9 17:51:05 | 只看该作者
多谢分享!!!多谢分享!!!

0

主题

16

帖子

77

积分

新人会员,请认真回复,若恶意回复,直接封号

Rank: 1

积分
77
10#
发表于 2016-9-17 07:06:19 | 只看该作者

找了好久,终于找到了,太喜欢了

0

主题

34

帖子

94

积分

新人会员,请认真回复,若恶意回复,直接封号

Rank: 1

积分
94
11#
发表于 2016-11-3 18:00:55 | 只看该作者
似的发射点发射点手动阀富士达撒

0

主题

30

帖子

50

积分

新人会员,请认真回复,若恶意回复,直接封号

Rank: 1

积分
50
12#
发表于 2016-11-13 02:40:47 | 只看该作者
就喜欢谭维维的歌曲。。。。有个性啊。

0

主题

15

帖子

89

积分

新人会员,请认真回复,若恶意回复,直接封号

Rank: 1

积分
89
13#
发表于 2016-12-6 01:47:40 | 只看该作者
谢谢好人,我领走了.下次有好的情歌我再来哦。

0

主题

18

帖子

85

积分

新人会员,请认真回复,若恶意回复,直接封号

Rank: 1

积分
85

社区QQ达人

14#
发表于 2017-2-2 12:22:04 | 只看该作者
非常感谢分享,既喜欢谭维维又喜欢一生所爱。

0

主题

1

帖子

53

积分

新人会员,请认真回复,若恶意回复,直接封号

Rank: 1

积分
53
15#
发表于 2017-2-3 22:11:49 | 只看该作者
  终于找到了  非常好听   感谢!
您需要登录后才可以回帖 登录 | 注册

本版积分规则

快速回复 返回顶部 返回列表