论坛广告

CD包论坛导航

CD包|聊天灌水,新人报到
聊天灌水,会员生活音乐推荐,乐评资讯CD帮-积分索求音乐资源新人报到,版规学习
CD包|音乐知识,刻录交流
音频知识,播放器交流刻录讨论,软件教程发烧设备-音箱耳机声卡CD包 - 合作商家包子 积分兑换HIFIMAN 头领科技
CD包|精选原抓资源下载
CD荐-自制推荐精选集原抓CD无损专辑发布
CD包|稀有无损音乐资源
稀有音乐资源稀有视频资源黑胶音乐母带音乐
CD包|无损音乐CD打包下载
华语无损音乐专辑欧美无损音乐专辑日韩无损音乐专辑古典无损音乐专辑发烧试音无损专辑无损单曲下载
CD包|高音质音乐专辑下载
320KMP3 高音质专辑下载 iTunes Plus AAC 下载摇滚金属专辑下载DJ,Disco,House,Dance,Trance等下载汽车音乐CD胎教及儿童音乐原声,纯音,器乐及其他高清MV,演唱会,综艺
CD包|ACG无损音乐下载
ACG游戏无损音乐下载ACG动画无损音乐下载
CD包|网站站内交流
失效回收站务公开
CD包|网站管理专版
管理组 - 管理人员交流版块小黑屋 - 负分用户升级转正版块
查看: 8900|回复: 28

[LIVE] 蒙面歌王:谭维维《野草 一生所爱》1080i/MKV/352M/百度云

[复制链接]

4

主题

52

帖子

800

积分

职业歌手

Rank: 3Rank: 3

积分
800

社区QQ达人

发表于 2016-6-22 17:46:50 | 显示全部楼层 |阅读模式

注册会员,获得无损资源下载地址,享受高品质音乐。

您需要 登录 才可以下载或查看,没有帐号?注册

x
QQ截图20160622174650.jpg
General
Unique ID                      : 227072587676193083106822222385568958637 (0xAAD496F10ABA7A3DB4E06A8D807E48AD)
Complete name                  : 一生所爱.mkv
Format                         : Matroska
Format version                 : Version 1
File size                      : 352 MiB
Duration                       : 5mn 17s
Overall bit rate               : 9 303 Kbps
Encoded date                   : UTC 2016-06-15 05:24:43
Writing application            : AVSMatroskaFile
Writing library                : libebml v0.7.7 + libmatroska v0.8.1
Video
ID                             : 1
Format                         : AVC
Format/Info                    : Advanced Video Codec
Format profile                 : Main@L5.1
Format settings, CABAC         : Yes
Format settings, ReFrames      : 2 frames
Codec ID                       : V_MPEG4/ISO/AVC
Duration                       : 5mn 17s
Bit rate                       : 8 862 Kbps
Width                          : 1 920 pixels
Height                         : 1 080 pixels
Display aspect ratio           : 16:9
Frame rate mode                : Constant
Frame rate                     : 25.000 fps
Color space                    : YUV
Chroma subsampling             : 4:2:0
Bit depth                      : 8 bits
Scan type                      : Progressive
Bits/(Pixel*Frame)             : 0.171
Stream size                    : 335 MiB (95%)
Default                        : Yes
Forced                         : No
Audio
ID                             : 2
Format                         : MPEG Audio
Format version                 : Version 1
Format profile                 : Layer 3
Codec ID                       : A_MPEG/L3
Codec ID/Hint                  : MP3
Duration                       : 5mn 17s
Bit rate mode                  : Constant
Bit rate                       : 256 Kbps
Channel(s)                     : 2 channels
Sampling rate                  : 44.1 KHz
Compression mode               : Lossy
Stream size                    : 9.69 MiB (3%)
Default                        : Yes
Forced                         : No


下载地址:
游客,如果您要查看本帖隐藏内容请回复

评分

参与人数 1CD +80 包子 +1 收起 理由
CDbao + 80 + 1 感谢分享资源,CD包因你而精彩.

查看全部评分




上一篇:我是歌手:关喆《悟空》1080i/MKV/361M/百度云
下一篇:Major Lazer ft. Nyla & Fuse ODG《Light it Up》(Remix)MP4/BD

0

主题

66

帖子

147

积分

新人会员,请认真回复,若恶意回复,直接封号

Rank: 1

积分
147
发表于 2016-6-22 20:32:05 | 显示全部楼层
深情的情歌!!神秘的女主角!!

0

主题

91

帖子

157

积分

乐坛新星

Rank: 2

积分
157

社区QQ达人

发表于 2016-6-24 23:05:20 | 显示全部楼层
精选最受欢迎女歌手年度畅销热曲
感人的歌声,总敲打着午夜寂寥的心……

0

主题

113

帖子

160

积分

乐坛新星

Rank: 2

积分
160

社区QQ达人

发表于 2016-7-6 16:52:10 | 显示全部楼层
不错,非常好喜欢听谭维维的歌

0

主题

48

帖子

105

积分

新人会员,请认真回复,若恶意回复,直接封号

Rank: 1

积分
105
发表于 2016-7-13 12:39:35 | 显示全部楼层
大爱这个,谢谢楼主!这么好的资源共享了。

0

主题

7

帖子

61

积分

新人会员,请认真回复,若恶意回复,直接封号

Rank: 1

积分
61
发表于 2016-8-9 18:47:08 | 显示全部楼层
蒙面歌王:谭维维《野草 一生所爱》1080i/MKV/352M

0

主题

158

帖子

-70

积分

恶意回复被扣没分了,积分增加方法见置顶帖

积分
-70
发表于 2016-8-16 00:51:44 | 显示全部楼层
蒙面歌王:谭维维《野草 一生所爱》

0

主题

274

帖子

135

积分

新人会员,请认真回复,若恶意回复,直接封号

Rank: 1

积分
135

社区QQ达人

发表于 2016-8-24 14:48:33 | 显示全部楼层
谭维维《野草 一生所爱谭维维《野草 一生所爱

0

主题

76

帖子

219

积分

乐坛新星

Rank: 2

积分
219
发表于 2016-9-9 17:51:05 | 显示全部楼层
多谢分享!!!多谢分享!!!

0

主题

16

帖子

77

积分

新人会员,请认真回复,若恶意回复,直接封号

Rank: 1

积分
77
发表于 2016-9-17 07:06:19 | 显示全部楼层

找了好久,终于找到了,太喜欢了
integral

0

主题

91

帖子

-16

积分

恶意回复被扣没分了,积分增加方法见置顶帖

积分
-16
发表于 2016-11-3 18:00:55 | 显示全部楼层
似的发射点发射点手动阀富士达撒

0

主题

32

帖子

56

积分

新人会员,请认真回复,若恶意回复,直接封号

Rank: 1

积分
56
发表于 2016-11-13 02:40:47 | 显示全部楼层
就喜欢谭维维的歌曲。。。。有个性啊。

0

主题

24

帖子

106

积分

新人会员,请认真回复,若恶意回复,直接封号

Rank: 1

积分
106
发表于 2016-12-6 01:47:40 | 显示全部楼层
谢谢好人,我领走了.下次有好的情歌我再来哦。

0

主题

18

帖子

85

积分

新人会员,请认真回复,若恶意回复,直接封号

Rank: 1

积分
85

社区QQ达人

发表于 2017-2-2 12:22:04 | 显示全部楼层
非常感谢分享,既喜欢谭维维又喜欢一生所爱。

0

主题

1

帖子

53

积分

新人会员,请认真回复,若恶意回复,直接封号

Rank: 1

积分
53
发表于 2017-2-3 22:11:49 | 显示全部楼层
  终于找到了  非常好听   感谢!
您需要登录后才可以回帖 登录 | 注册

本版积分规则

快速回复 返回顶部 返回列表