查看: 385|回复: 7

[LIVE] 我是歌手:关喆《悟空》1080i/MKV/361M/百度云

[复制链接]

4

主题

45

帖子

785

积分

职业歌手

Rank: 3Rank: 3

积分
785

社区QQ达人

发表于 2016-6-22 17:42:59 | 显示全部楼层 |阅读模式

注册会员,获得无损资源下载地址,享受高品质音乐。

您需要 登录 才可以下载或查看,没有帐号?注册

x
QQ截图20160622174204.jpg
General
Unique ID                      : 222578753202855453286600482880540014661 (0xA7731BCBC0CB24F48F88DC058E227845)
Complete name                  : 悟空.mkv
Format                         : Matroska
Format version                 : Version 1
File size                      : 361 MiB
Duration                       : 5mn 26s
Overall bit rate               : 9 281 Kbps
Encoded date                   : UTC 2016-06-15 06:58:24
Writing application            : AVSMatroskaFile
Writing library                : libebml v0.7.7 + libmatroska v0.8.1
Video
ID                             : 1
Format                         : AVC
Format/Info                    : Advanced Video Codec
Format profile                 : [email protected]
Format settings, CABAC         : Yes
Format settings, ReFrames      : 2 frames
Codec ID                       : V_MPEG4/ISO/AVC
Duration                       : 5mn 26s
Bit rate                       : 8 841 Kbps
Width                          : 1 920 pixels
Height                         : 1 080 pixels
Display aspect ratio           : 16:9
Frame rate mode                : Constant
Frame rate                     : 25.000 fps
Color space                    : YUV
Chroma subsampling             : 4:2:0
Bit depth                      : 8 bits
Scan type                      : Progressive
Bits/(Pixel*Frame)             : 0.171
Stream size                    : 344 MiB (95%)
Default                        : Yes
Forced                         : No
Audio
ID                             : 2
Format                         : MPEG Audio
Format version                 : Version 1
Format profile                 : Layer 3
Codec ID                       : A_MPEG/L3
Codec ID/Hint                  : MP3
Duration                       : 5mn 26s
Bit rate mode                  : Constant
Bit rate                       : 256 Kbps
Channel(s)                     : 2 channels
Sampling rate                  : 44.1 KHz
Compression mode               : Lossy
Stream size                    : 9.96 MiB (3%)
Writing library                : LAMELAME_MAJOR_VERSI
Default                        : Yes
Forced                         : No


下载地址:
游客,如果您要查看本帖隐藏内容请回复

评分

参与人数 1CD +60 收起 理由
最终之战 + 60

查看全部评分




上一篇:中国好歌曲:苏运莹《野子》1080i MKV/193M/百度云
下一篇:蒙面歌王:谭维维《野草 一生所爱》1080i/MKV/352M/百度云

0

主题

102

帖子

170

积分

乐坛新星

Rank: 2

积分
170

社区QQ达人

发表于 2016-6-25 17:59:56 | 显示全部楼层
谢谢楼主分享经典歌曲资源!楼主辛苦了!

0

主题

48

帖子

73

积分

新人会员,请认真回复,若恶意回复,直接封号

Rank: 1

积分
73

社区QQ达人

发表于 2016-6-30 10:17:37 | 显示全部楼层
WUKONG 好听吗?我不记得了法国东方

1

主题

104

帖子

180

积分

乐坛新星

Rank: 2

积分
180
QQ
发表于 2016-7-8 15:01:47 | 显示全部楼层
超震撼的现场演绎,找这首歌找好久了,谢谢。

0

主题

15

帖子

67

积分

新人会员,请认真回复,若恶意回复,直接封号

Rank: 1

积分
67
发表于 2016-9-22 09:36:16 | 显示全部楼层
非常喜欢这首歌,非常感谢楼主的分享。

0

主题

10

帖子

64

积分

新人会员,请认真回复,若恶意回复,直接封号

Rank: 1

积分
64
发表于 2016-10-2 00:13:35 | 显示全部楼层
关喆棒棒哒,演绎各种曲风都得心应手。唱这首有不同原唱的风味

0

主题

25

帖子

38

积分

新人会员,请认真回复,若恶意回复,直接封号

Rank: 1

积分
38
发表于 2016-11-13 02:42:09 | 显示全部楼层
没听过这个版本的歌曲,不过悟空这首歌曲很不错啊

0

主题

128

帖子

142

积分

新人会员,请认真回复,若恶意回复,直接封号

Rank: 1

积分
142

社区QQ达人

发表于 2016-11-13 03:25:27 | 显示全部楼层
谢楼主分享经典歌曲资源!楼主辛苦了!
您需要登录后才可以回帖 登录 | 注册

本版积分规则

快速回复 返回顶部 返回列表