查看: 640|回复: 6

[LIVE] 中国好歌曲:苏运莹《野子》1080i MKV/193M/百度云

[复制链接]

4

主题

45

帖子

785

积分

职业歌手

Rank: 3Rank: 3

积分
785

社区QQ达人

发表于 2016-6-22 17:40:04 | 显示全部楼层 |阅读模式

注册会员,获得无损资源下载地址,享受高品质音乐。

您需要 登录 才可以下载或查看,没有帐号?注册

x
QQ截图20160622173934.jpg
General
Unique ID                      : 177115248715281491032548664145897187815 (0x853F27F6E13464458644D586D791E9E7)
Complete name                  : 苏运莹-野子.mkv
Format                         : Matroska
Format version                 : Version 1
File size                      : 193 MiB
Duration                       : 2mn 53s
Overall bit rate               : 9 359 Kbps
Encoded date                   : UTC 2016-06-15 03:08:52
Writing application            : AVSMatroskaFile
Writing library                : libebml v0.7.7 + libmatroska v0.8.1
Video
ID                             : 1
Format                         : AVC
Format/Info                    : Advanced Video Codec
Format profile                 : [email protected]
Format settings, CABAC         : Yes
Format settings, ReFrames      : 2 frames
Codec ID                       : V_MPEG4/ISO/AVC
Duration                       : 2mn 53s
Bit rate                       : 8 916 Kbps
Width                          : 1 920 pixels
Height                         : 1 080 pixels
Display aspect ratio           : 16:9
Frame rate mode                : Constant
Frame rate                     : 25.000 fps
Color space                    : YUV
Chroma subsampling             : 4:2:0
Bit depth                      : 8 bits
Scan type                      : Progressive
Bits/(Pixel*Frame)             : 0.172
Stream size                    : 184 MiB (95%)
Default                        : Yes
Forced                         : No
Audio
ID                             : 2
Format                         : MPEG Audio
Format version                 : Version 1
Format profile                 : Layer 3
Codec ID                       : A_MPEG/L3
Codec ID/Hint                  : MP3
Duration                       : 2mn 53s
Bit rate mode                  : Constant
Bit rate                       : 256 Kbps
Channel(s)                     : 2 channels
Sampling rate                  : 44.1 KHz
Compression mode               : Lossy
Stream size                    : 5.29 MiB (3%)
Writing library                : LAMELAME_MAJOR_VERSI
Default                        : Yes
Forced                         : No



下载地址:
游客,如果您要查看本帖隐藏内容请回复

评分

参与人数 1CD +80 包子 +1 收起 理由
CDbao + 80 + 1 感谢分享资源,CD包因你而精彩.

查看全部评分




上一篇:速度与激情7主题曲《See You Again》1080P/671M/720P/175M/百度云
下一篇:我是歌手:关喆《悟空》1080i/MKV/361M/百度云

0

主题

85

帖子

168

积分

乐坛新星

Rank: 2

积分
168

社区QQ达人

发表于 2016-6-22 22:50:19 | 显示全部楼层

这首歌第一次听就感动了我,苏苏再也没有写出更好的歌了

0

主题

113

帖子

160

积分

乐坛新星

Rank: 2

积分
160

社区QQ达人

发表于 2016-7-6 16:59:22 | 显示全部楼层
非常喜欢这首歌,非常感谢楼主的分享。

1

主题

104

帖子

180

积分

乐坛新星

Rank: 2

积分
180
QQ
发表于 2016-7-8 15:02:54 | 显示全部楼层
这是苏运莹最好听的两首歌之一,一是野子,一是我。

0

主题

15

帖子

67

积分

新人会员,请认真回复,若恶意回复,直接封号

Rank: 1

积分
67
发表于 2016-9-22 09:37:27 | 显示全部楼层
谢谢楼主分享经典歌曲资源!楼主辛苦了!

0

主题

30

帖子

102

积分

新人会员,请认真回复,若恶意回复,直接封号

Rank: 1

积分
102

社区QQ达人

发表于 2016-10-6 12:14:20 来自手机 | 显示全部楼层
细心的近义词细心的近义词是什么、sfhjkllvbnnncvhjiiojiiooohcvjjjvvjkkbvb

0

主题

101

帖子

204

积分

乐坛新星

Rank: 2

积分
204
发表于 2016-10-29 18:22:36 | 显示全部楼层
喜欢这只一鸣惊人的现场!!!!!!!!!!!!!!!!!!!!!!!!
您需要登录后才可以回帖 登录 | 注册

本版积分规则

快速回复 返回顶部 返回列表