论坛广告

CD包论坛导航

CD包|聊天灌水,新人报到
聊天灌水,会员生活音乐推荐,乐评资讯CD帮-积分索求音乐资源新人报到,版规学习
CD包|音乐知识,刻录交流
音频知识,播放器交流刻录讨论,软件教程发烧设备-音箱耳机声卡CD包 - 合作商家包子 积分兑换HIFIMAN 头领科技
CD包|精选原抓资源下载
CD荐-自制推荐精选集原抓CD无损专辑发布
CD包|稀有无损音乐资源
稀有音乐资源稀有视频资源黑胶音乐母带音乐
CD包|无损音乐CD打包下载
华语无损音乐专辑欧美无损音乐专辑日韩无损音乐专辑古典无损音乐专辑发烧试音无损专辑无损单曲下载
CD包|高音质音乐专辑下载
320KMP3 高音质专辑下载 iTunes Plus AAC 下载摇滚金属专辑下载DJ,Disco,House,Dance,Trance等下载汽车音乐CD胎教及儿童音乐原声,纯音,器乐及其他高清MV,演唱会,综艺
CD包|ACG无损音乐下载
ACG游戏无损音乐下载ACG动画无损音乐下载
CD包|网站站内交流
失效回收站务公开
CD包|网站管理专版
管理组 - 管理人员交流版块小黑屋 - 负分用户升级转正版块
查看: 3852|回复: 48

[MV] 速度与激情7主题曲《See You Again》1080P/671M/720P/175M/百度云

[复制链接]

4

主题

51

帖子

798

积分

职业歌手

Rank: 3Rank: 3

积分
798

社区QQ达人

发表于 2016-6-22 17:35:02 | 显示全部楼层 |阅读模式

注册会员,获得无损资源下载地址,享受高品质音乐。

您需要 登录 才可以下载或查看,没有帐号?注册

x
QQ截图20160622172239.jpg
General
Complete name                  :  See You Again.速7.MV.1080p.mp4
Format                         : MPEG-4
Format profile                 : Base Media / Version 2
Codec ID                       : mp42
File size                      : 671 MiB
Duration                       : 4mn 5s
Overall bit rate mode          : Variable
Overall bit rate               : 22.9 Mbps
Encoded date                   : UTC 2016-06-22 09:05:41
Tagged date                    : UTC 2016-06-22 09:05:50
㏕IM                            : 00:00:00:00
㏕SC                            : 24000
㏕SZ                            : 1001
Video
ID                             : 1
Format                         : AVC
Format/Info                    : Advanced Video Codec
Format profile                 : Main@L4.1
Format settings, CABAC         : Yes
Format settings, ReFrames      : 3 frames
Codec ID                       : avc1
Codec ID/Info                  : Advanced Video Coding
Duration                       : 4mn 5s
Source duration                : 4mn 5s
Bit rate                       : 22.7 Mbps
Width                          : 1 920 pixels
Height                         : 1 080 pixels
Display aspect ratio           : 16:9
Frame rate mode                : Variable
Frame rate                     : 23.976 fps
Minimum frame rate             : 23.976 fps
Maximum frame rate             : 24.000 fps
Standard                       : NTSC
Color space                    : YUV
Chroma subsampling             : 4:2:0
Bit depth                      : 8 bits
Scan type                      : Progressive
Bits/(Pixel*Frame)             : 0.456
Stream size                    : 664 MiB (99%)
Source stream size             : 664 MiB (99%)
Language                       : English
Encoded date                   : UTC 2016-06-22 09:05:41
Tagged date                    : UTC 2016-06-22 09:05:41
mdhd_Duration                  : 245871
Audio
ID                             : 2
Format                         : AAC
Format/Info                    : Advanced Audio Codec
Format profile                 : LC
Codec ID                       : 40
Duration                       : 4mn 5s
Source duration                : 4mn 5s
Bit rate mode                  : Variable
Bit rate                       : 253 Kbps
Maximum bit rate               : 356 Kbps
Channel(s)                     : 2 channels
Channel positions              : Front: L R
Sampling rate                  : 48.0 KHz
Compression mode               : Lossy
Stream size                    : 7.43 MiB (1%)
Source stream size             : 7.43 MiB (1%)
Language                       : English
Encoded date                   : UTC 2016-06-22 09:05:41
Tagged date                    : UTC 2016-06-22 09:05:41
mdhd_Duration                  : 245909



下载地址:1080P:
游客,如果您要查看本帖隐藏内容请回复

                 720P:
游客,如果您要查看本帖隐藏内容请回复

评分

参与人数 1CD +60 收起 理由
最终之战 + 60

查看全部评分




上一篇:VA - Hellfest Open Air (2016) TS/720p/种子/10.94G
下一篇:中国好歌曲:苏运莹《野子》1080i MKV/193M/百度云

0

主题

85

帖子

168

积分

乐坛新星

Rank: 2

积分
168

社区QQ达人

发表于 2016-6-22 22:58:21 | 显示全部楼层

这个不错,可以弄下来听听,感谢分享

0

主题

66

帖子

49

积分

新人会员,请认真回复,若恶意回复,直接封号

Rank: 1

积分
49

社区QQ达人

发表于 2016-6-22 23:06:33 | 显示全部楼层
感谢楼主分享

0

主题

188

帖子

462

积分

职业歌手

Rank: 3Rank: 3

积分
462

社区QQ达人

发表于 2016-6-24 11:17:22 | 显示全部楼层
喜欢超清版本的,在电视上播放简直就是享受

0

主题

289

帖子

830

积分

职业歌手

Rank: 3Rank: 3

积分
830
发表于 2016-6-24 22:29:13 | 显示全部楼层
楼主辛苦,太棒了这MV谢谢了,收藏起来

0

主题

290

帖子

288

积分

乐坛新星

Rank: 2

积分
288
发表于 2016-6-27 07:13:51 | 显示全部楼层
主辛苦,太棒了这MV谢谢了,收藏起来

0

主题

99

帖子

-15

积分

恶意回复被扣没分了,积分增加方法见置顶帖

积分
-15

社区QQ达人

发表于 2016-6-27 11:05:38 | 显示全部楼层
谢谢了!!!!!!!!!!!!!!!!!!!!!!!!!
integral

0

主题

39

帖子

98

积分

新人会员,请认真回复,若恶意回复,直接封号

Rank: 1

积分
98
发表于 2016-6-28 09:40:44 | 显示全部楼层
感谢分享,辛苦了,楼主,非常感谢,非常想k

0

主题

46

帖子

117

积分

新人会员,请认真回复,若恶意回复,直接封号

Rank: 1

积分
117
发表于 2016-6-28 12:08:35 | 显示全部楼层

好东西,大家分享,真的非常好听。

0

主题

16

帖子

81

积分

新人会员,请认真回复,若恶意回复,直接封号

Rank: 1

积分
81

社区QQ达人

发表于 2016-7-1 23:15:29 | 显示全部楼层
See You Again,miss u my old friend

0

主题

184

帖子

743

积分

职业歌手

Rank: 3Rank: 3

积分
743

社区QQ达人

发表于 2016-7-14 11:43:25 | 显示全部楼层
很好,下来看看,谢谢楼主分享!

0

主题

72

帖子

725

积分

职业歌手

Rank: 3Rank: 3

积分
725

社区QQ达人

QQ
发表于 2016-7-28 10:35:17 | 显示全部楼层
太好了 我终于找到了 好电影好演员不好命 天堂快乐

0

主题

118

帖子

255

积分

乐坛新星

Rank: 2

积分
255
发表于 2016-7-29 10:23:15 | 显示全部楼层
找歌曲没沼渣,怎么玩啊,这么越来越多啊,晕车啊

0

主题

125

帖子

231

积分

乐坛新星

Rank: 2

积分
231
发表于 2016-8-2 20:25:33 | 显示全部楼层
感谢分享....                                   
您需要登录后才可以回帖 登录 | 注册

本版积分规则

快速回复 返回顶部 返回列表