查看: 178|回复: 2

[欧美摇滚] 美死金obituary《It's Killing Time》1992/flac/百度

[复制链接]

3082

主题

4257

帖子

55万

积分

音乐主神

Rank: 10Rank: 10Rank: 10

积分
553138

社区QQ达人精华帖达人分享勋章灌水勋章

发表于 2016-6-6 16:17:44 | 显示全部楼层 |阅读模式

注册会员,获得无损资源下载地址,享受高品质音乐。

您需要 登录 才可以下载或查看,没有帐号?注册

x
7e7d44810419458fba7e551b65ba1083.jpg

美国着名老牌死亡金属乐队obituary成军于1985年佛罗里达州的布兰登市。起初,乐队的名称是xecutioner。乐队先后录制了一张单曲,并以xecutioner的名义在合辑metal massacre中推出了两首曲子。之后,由于发现另外一支乐队也叫xecutioner,于是乐队决定改名为obituary(生死讣)。 1988年,乐队与roadrunner公司签约,并于1989年推出了首张专辑,也就是死亡金属的经典名作slowly we rot(我们缓慢地腐烂)。此时乐队成员是主唱john tardy,吉他手allen west和trevor peres,鼓手donald tardy和贝司手david tucker。这张专辑的成功推出,奠定了obituary在死亡金属界的重要地位。主唱john tardy魔兽般的咆哮和压路机般缓慢碾磨行进的歌曲结构成了乐队的标签。听obituary的音乐,置身在汹涌而至的吉他和鼓击的节奏旋流中,你可以感觉到自己完全被乐器所表现的意境所包围了,而不会去在意他们的歌词在唱些什么。事实上,在这张专辑中,单凭tardy那难以辨认歌词的声音(亦是其他人所无法模仿的),就可以把这支乐队与其他的美式急速死亡先驱所区分开来。 1990年,乐队发行了第二张专辑cause of death(死亡原因)。这张专辑比第一张更为成熟,乐队对音乐的把握也更进一步。同时,整张专辑的曲风非常统一,处处体现了obituary式的稳健的暴力。当时的评价是:obituary继续扮演了这场骇人听闻的血腥音乐屠戮的主角,把死亡金属的概念延伸到了极致。

QQ截图20160606161444.jpg

TRACK 01 AUDIO
    TITLE "I'm In Pain/Godly Beings"
    INDEX 01 00:00:00
  TRACK 02 AUDIO
    TITLE "Turned Inside Out"
    INDEX 01 06:38:45
  TRACK 03 AUDIO
    TITLE "In The End Of Life"
    INDEX 01 11:27:55
  TRACK 04 AUDIO
    TITLE "Body Bag"
    INDEX 01 15:20:50
  TRACK 05 AUDIO
    TITLE "Chpped In Half"
    INDEX 01 21:33:50
  TRACK 06 AUDIO
    TITLE "Killing Time"
    INDEX 01 25:27:52
  TRACK 07 AUDIO
    TITLE "Find The Arise"
    INDEX 01 29:16:67
  TRACK 08 AUDIO
    TITLE "Back To One"
    INDEX 01 31:20:40
  TRACK 09 AUDIO
    TITLE "Sickness"
    INDEX 01 35:09:12
  TRACK 10 AUDIO
    TITLE "Suffocation"
    INDEX 01 39:23:37
  TRACK 11 AUDIO
    TITLE "The End Complete"
    INDEX 01 42:04:30
  TRACK 12 AUDIO
    TITLE "Dying"
    INDEX 01 46:12:15
  TRACK 13 AUDIO
    TITLE "Cause Of Death"
    INDEX 01 50:27:12
  TRACK 14 AUDIO
    TITLE "Memories Of Death"
    INDEX 01 56:13:67
  TRACK 15 AUDIO
    TITLE "Slowly We Rot"
    INDEX 01 60:44:32
  TRACK 16 AUDIO
    TITLE "Words Of Evil"
    INDEX 01 64:40:67




游客,如果您要查看本帖隐藏内容请回复


评分

参与人数 1CD +80 包子 +2 收起 理由
最终之战 + 80 + 2

查看全部评分




上一篇:瑞典厄运金October Tide《Winged Waltz》2016/flac/百度
下一篇:法抑郁黑Nocturnal Depression《Suicidal Thoughts》flac/百度

1

主题

4235

帖子

4437

积分

人气天王

Rank: 5Rank: 5

积分
4437

社区QQ达人

发表于 2016-7-29 01:05:10 | 显示全部楼层
一直很喜欢她的歌,好歌不错过,支持了先

0

主题

38

帖子

121

积分

新人会员,请认真回复,若恶意回复,直接封号

Rank: 1

积分
121
发表于 2016-11-13 16:21:55 | 显示全部楼层
支持一下 開始聽這一對band
不錯不錯
您需要登录后才可以回帖 登录 | 注册

本版积分规则

快速回复 返回顶部 返回列表