查看: 797|回复: 4

[华语] 原抓:谢天笑《幻觉》WAV/百度

[复制链接]

26

主题

73

帖子

5444

积分

人气天王

Rank: 5Rank: 5

积分
5444
发表于 2016-4-10 19:00:56 | 显示全部楼层 |阅读模式

注册会员,获得无损资源下载地址,享受高品质音乐。

您需要 登录 才可以下载或查看,没有帐号?注册

x
本帖最后由 hanwulei 于 2016-4-11 20:28 编辑

累了,,,这些天也发了不少,看看自己的CD架也不想在费事上传了,这些天发这么多资源帖也都是想快点升级下老谢的自抓,干脆直接下单买下来好了。懒得拍专辑封面~~回复版主 喜欢的专辑我有条件都会购买正版的。。。。
孙海英2013年的砖,期待在发新砖
01 与声音跳舞
02 脚步声在靠近
03 笼中鸟
04 把夜晚染黑
05 幻觉
06 追逐影子的人
07 不会改变
08 命运还是巧合
09 让我走
游客,如果您要查看本帖隐藏内容请回复
QQ图片20160410222351.png


  专辑简介:
◎《幻觉》是谢天笑签约摩登天空后的首张专辑,在2012年底《摩登天空7》合辑中一首《把夜晚染黑》揭开了新专辑神秘的序幕。这是一张回归之作,是谢天笑数年沉淀的产物,专辑的同期录音工程在北京老牌录音棚百花录制完成,力求还原更粗糙原始的音色质感和现场情绪。由清醒乐队鼓手一环担任制作人,高水准的混音制作也使得这张专辑实现了意识与内容的完美结合。

与形而上的社会理论家有所不同的是,谢天笑生长于离地面更近的地方,他从未尝试将自己架空于经验之上,感受以外。他的音乐像虫鸣一样尖锐,魅力来自于他的流畅和干脆,从不企图鼓吹理想主义的乌托邦,但当他站在舞台上咆哮时,他的愤怒依然能像鞭子一样抽中在场的每一个人。因为这愤怒源于真实的生活,这是谢天笑的功能,他从不刻意讨好大众审美,并且拽着你远离轻飘飘的时髦生活。必须承认的是,谢天笑占据了阴郁的天空一角。无论他将古筝,弦乐,雷鬼等各种元素揉杂进他的音乐,万变不离其宗的主题只有那一个,他是如此简洁干脆,鲜明的反对所有的矫饰和形而上学的混乱。所以这足以解释他的争议性,在大众审美快餐化的今日,他将外来因素像烟灰一样的扫出自己的音乐,在风一吹就散的言论里,谢天笑自像磐石一般蔚然不动。

《幻觉》结构分明主题统一,在大量加入键盘演奏的奇异音效背后,谢天笑的摇滚风骨依然脉络清晰,即使在键盘时髦的音色节拍铺垫下,垃圾摇滚的经典分解和弦和推土机式的贝斯线条仍然牢牢占据着专辑的主导地位。那股燥狠劲头如今被他扭进音乐的复杂编配里,在焦躁扭曲的音墙和粗糙的失真之间,听得出老谢和自己的较劲,在更为流畅的旋律走向中,他的怪异与宏大融汇成昭然若揭的野心,用更高制作水准回归最本真的摇滚乐!吉他的回授与延音制造出的宏大声场把所有讨巧元素包裹其中,对五声音阶的大量使用早已形成了独一无二的谢天笑式风格,在《幻觉》这张新专辑里,他依旧延续并巩固了这种风格。

关于谢天笑音乐风格转变的争论从未停止过,摇滚青年们希望他再狠点,再躁点,再继续砸下去,最好将一切砸烂,用以创建想象中的美丽新世界,可老谢似入无人之境般低眉垂目,不做细看也不做分辨,他并不乐意成为这一套燃烧理论的代言人,他的音乐只忠于自己的内心,旋律和歌词只为当下的感受服务。从某种意义上说,如今更内敛的谢天笑式音乐,反而成为他对群体意识的一种反叛。《幻觉》来自谢天笑的个人体验,他逐渐以从容取代激烈,将其转变为对音乐近似偏执狂一般的挑剔较真,内在的情感构成他的世界观,沉淀出这张专辑内省深沉,更具有说服力的音乐风貌。

Exact Audio Copy V1.0 beta 6 from 9. April 2015


EAC 抓取日志文件从10. 四月 2016, 18:40


谢天笑 / 幻觉


使用驱动器  :HL-DT-STDVDRAM GT90N   Adapter: 1  ID: 0


读取模式 : 暴发


读取偏移校正:               : 6
读取 Lead-In 和 Lead-Out : 否
用静音填充抓取中丢失偏移的采样       : 是
去除首尾静音块               : 否
在CRC 计算中使用了空样本       : 是
已用接口                  : Win NT 及 2000 本地 Win32 接口
间隙处理                  : 没检测到,因此追加到上一曲目


所用输出模式: : 内部 WAV 函数
样本格式    : 44.100 Hz; 16 Bit; 立体声




已抓取 CD 的 TOC


     音轨 |    起始    |    长度    |  起始扇区  |  结束扇区  
    --------------------------------------------
      1 |  0:00.00 |  4:44.34 |      0 |  21333
      2 |  4:44.34 |  4:54.12 |  21334 |  43395
      3 |  9:38.46 |  4:38.51 |  43396 |  64296
      4 | 14:17.22 |  5:14.46 |  64297 |  87892
      5 | 19:31.68 |  4:47.29 |  87893 | 109446
      6 | 24:19.22 |  4:43.30 | 109447 | 130701
      7 | 29:02.52 |  4:22.59 | 130702 | 150410
      8 | 33:25.36 |  4:23.19 | 150411 | 170154
      9 | 37:48.55 |  5:07.14 | 170155 | 193193




音轨  1


     文件名 C:\Users\Michael\Desktop\自抓音轨\幻觉\01 与声音跳舞.wav


     计时问题 0:00:15
     计时问题 0:00:18
     计时问题 0:00:22


     峰值电平 100.0 %
     抓取速度 8.0 X
     复制 CRC 2104DA50
     音轨在 AccurateRip 数据库中无记录
     复制结束


音轨  2


     文件名 C:\Users\Michael\Desktop\自抓音轨\幻觉\02 脚步声在靠近.wav


     峰值电平 99.5 %
     抓取速度 11.2 X
     复制 CRC 54538815
     音轨在 AccurateRip 数据库中无记录
     复制成功


音轨  3


     文件名 C:\Users\Michael\Desktop\自抓音轨\幻觉\03 笼中鸟.wav


     峰值电平 100.0 %
     抓取速度 12.4 X
     复制 CRC E6774124
     音轨在 AccurateRip 数据库中无记录
     复制成功


音轨  4


     文件名 C:\Users\Michael\Desktop\自抓音轨\幻觉\04 把夜晚染黑.wav


     峰值电平 100.0 %
     抓取速度 13.5 X
     复制 CRC 18A02E82
     音轨在 AccurateRip 数据库中无记录
     复制成功


音轨  5


     文件名 C:\Users\Michael\Desktop\自抓音轨\幻觉\05 幻觉.wav


     峰值电平 100.0 %
     抓取速度 14.5 X
     复制 CRC 0924E159
     音轨在 AccurateRip 数据库中无记录
     复制成功


音轨  6


     文件名 C:\Users\Michael\Desktop\自抓音轨\幻觉\06 追逐影子的人.wav


     峰值电平 100.0 %
     抓取速度 15.4 X
     复制 CRC DE083696
     音轨在 AccurateRip 数据库中无记录
     复制成功


音轨  7


     文件名 C:\Users\Michael\Desktop\自抓音轨\幻觉\07 不会改变.wav


     峰值电平 100.0 %
     抓取速度 16.2 X
     复制 CRC 7D890EC1
     音轨在 AccurateRip 数据库中无记录
     复制成功


音轨  8


     文件名 C:\Users\Michael\Desktop\自抓音轨\幻觉\08 命运还是巧合.wav


     峰值电平 100.0 %
     抓取速度 17.0 X
     复制 CRC 635C576F
     音轨在 AccurateRip 数据库中无记录
     复制成功


音轨  9


     文件名 C:\Users\Michael\Desktop\自抓音轨\幻觉\09 让我走.wav


     峰值电平 100.0 %
     抓取速度 17.8 X
     复制 CRC 0552C792
     音轨在 AccurateRip 数据库中无记录
     复制成功




没有任何音轨在 AccurateRip 数据库中有记录


没有错误发生


状态报告结尾


---- CUETools DB Plugin V2.1.6


[CTDB TOCID: ii5EiogiJC6QIMj7Z67IpWK81dk-] found
Submit result: ii5EiogiJC6QIMj7Z67IpWK81dk- has been confirmed
Track | CTDB Status
  1   | (14/14) Accurately ripped
  2   | (14/14) Accurately ripped
  3   | (14/14) Accurately ripped
  4   | (14/14) Accurately ripped
  5   | (13/14) Accurately ripped
  6   | (14/14) Accurately ripped
  7   | (14/14) Accurately ripped
  8   | (14/14) Accurately ripped
  9   | (14/14) Accurately ripped



评分

参与人数 2CD +250 包子 +2 收起 理由
CDbao + 50 请补充一下 帖子图片。手机拍摄CD封面.
最终之战 + 200 + 2 感谢分享资源,CD包因你而精彩.

查看全部评分




上一篇:原抓:谢天笑《XTX》WAV/百度
下一篇:最终原抓:梦灵《破晓 Rising》2015欧巡记现场专辑限量330张/BD
 成长值: 19575

6463

主题

1万

帖子

8万

积分

音乐掌门人

Rank: 20Rank: 20Rank: 20Rank: 20Rank: 20

积分
83745

名人勋章社区QQ达人分享勋章精华帖达人灌水勋章

发表于 2016-4-11 17:06:59 | 显示全部楼层
多谢兄弟支持国摇正版!!!!
关于链接失效的说明(度盘+115盘+快传 好友分享的说明)
http://www.cdbao.net/thread-117499-1-1.html     
紧急通告:115,快传等网盘取消了分享功能礼包码链接全部失效
http://www.cdbao.net/thread-122759-1-1.html

1

主题

4

帖子

85

积分

新人会员,请认真回复,若恶意回复,直接封号

Rank: 1

积分
85
发表于 2016-4-11 16:20:09 | 显示全部楼层
这张挺不错的  楼主 网盘 下载不了呢。。

264

主题

731

帖子

3万

积分

天王巨星

Rank: 7Rank: 7Rank: 7

积分
37034

社区QQ达人灌水勋章分享勋章

发表于 2016-4-27 09:13:35 | 显示全部楼层
有条件的就支持购买正版cd 国摇才有发展
 成长值: 260

0

主题

257

帖子

371

积分

VIP1

Rank: 4

积分
371

社区QQ达人

发表于 2016-11-9 20:03:32 | 显示全部楼层
下载下来听听谢谢楼主的分享!!!!
您需要登录后才可以回帖 登录 | 注册

本版积分规则

快速回复 返回顶部 返回列表