查看: 601|回复: 2

[华语] 原抓:范玮琪《真善美》2003 整轨WAV+LOG/百度

[复制链接]

58

主题

116

帖子

1万

积分

流行教主

Rank: 6Rank: 6

积分
12894
发表于 2016-4-3 22:20:35 | 显示全部楼层 |阅读模式

注册会员,获得无损资源下载地址,享受高品质音乐。

您需要 登录 才可以下载或查看,没有帐号?注册

x
IMG_0237.JPG
IMG_0238.JPG
IMG_0144.JPG
专辑名称:真善美
专辑歌手:范玮琪
唱片发行:福茂唱片
出版者: 上海音像
发行时间:2003年
资源格式:WAV+CUE

专辑介绍:

 《范玮琪:真善美》在新专辑筹备期间,美伊战争上演,范玮琪眼见着这场人类文明史上的悲剧,特别选唱了创作人朴树的《那些花儿》这首歌,自己加上了一段灵感来自越战期间反战名曲《花儿不见了Where Have All the Flowers Gone》的英文歌词。也是因为这样的心境,期望人们随着美好音符、追求幸福的心永不停息。
  
  去年以《启程》这首歌,随着《爱情白皮书》电视剧的播出,范玮琪抚慰人心的范式唱腔深得人心。《启程》这首歌,更获得了2003年Channel V观众票选十大最受欢迎年度单曲的殊荣。
  
  《好寂寞》:音乐才子潘协庆为光良和范范量身订作KTV男女对唱曲。
  《我们之间的事》:金曲奖入围两项最佳作曲创作人陈晓娟全新力作,《又见橘花香》片尾曲。
  《你》:继《天使的翅膀》范玮琪2003创作成绩单,指定献给范迷的贴心单曲。
  《葡萄酒作怪》:李正帆+范玮琪“One Take”七分钟实验性单曲,实力呈现。

专辑曲目:

01 那些花儿
02 好寂寞(范玮琪/光良合唱)
03 我就是这样
04 我们之间的事(又见橘花香)片尾曲
05 可不可以不勇敢
06 永恒
07 葡萄酒作怪
08 你
09 No Matter
10 启程(爱情白皮书)片头曲
11 有你真好(爱情白皮书)片尾曲

百度下载:
游客,如果您要查看本帖隐藏内容请回复




======================================
Exact Audio Copy V1.1 from 23. June 2015

EAC 抓取日志文件从17. 三月 2016, 5:23

范玮琪 / 真善美

使用驱动器  :ASUS    DRW-24D1ST   Adapter: 1  ID: 0

读取模式      : 可靠Secure
使用精确流     : 是
清空音频缓存    : 是
使用 C2 指示器 : 否

读取偏移校正:               : 667
读取 Lead-In 和 Lead-Out : 否
用静音填充抓取中丢失偏移的采样       : 是
去除首尾静音块               : 否
在CRC 计算中使用了空样本       : 是
已用接口                  : Win NT 及 2000 本地 Win32 接口

所用输出模式: : 内部 WAV 函数
样本格式    : 44.100 Hz; 16 Bit; 立体声


已抓取 CD 的 TOC

     音轨 |    起始    |    长度    |  起始扇区  |  结束扇区  
    --------------------------------------------
      1 |  0:00.00 |  5:20.57 |      0 |  24056
      2 |  5:20.57 |  5:31.23 |  24057 |  48904
      3 | 10:52.05 |  3:59.64 |  48905 |  66893
      4 | 14:51.69 |  4:47.31 |  66894 |  88449
      5 | 19:39.25 |  4:14.01 |  88450 | 107500
      6 | 23:53.26 |  4:21.68 | 107501 | 127143
      7 | 28:15.19 |  5:37.27 | 127144 | 152445
      8 | 33:52.46 |  4:11.60 | 152446 | 171330
      9 | 38:04.31 |  4:24.44 | 171331 | 191174
     10 | 42:29.00 |  4:40.19 | 191175 | 212193
     11 | 47:09.19 |  4:35.16 | 212194 | 232834


范围状态及错误

已选择范围

     文件名 C:\Users\liuliu\Desktop\范玮琪-真善美\范玮琪 - 真善美.wav

     峰值电平 98.5 %
     抓取速度 5.0 X
     范围质量 99.9 %
     复制 CRC 0AC8AB8C
     复制成功

没有错误发生


AccurateRip 摘要

音轨  1  精确地校准抓取  1)  [F8724EE6]  (AR v2)
音轨  2  精确地校准抓取  1)  [F65E028F]  (AR v2)
音轨  3  精确地校准抓取  1)  [5B473D88]  (AR v2)
音轨  4  精确地校准抓取  1)  [C928AB87]  (AR v2)
音轨  5  精确地校准抓取  1)  [8CC9837F]  (AR v2)
音轨  6  精确地校准抓取  1)  [097D99F5]  (AR v2)
音轨  7  精确地校准抓取  1)  [FE0C8659]  (AR v2)
音轨  8  精确地校准抓取  1)  [BA9767AD]  (AR v2)
音轨  9  精确地校准抓取  1)  [87A1E28C]  (AR v2)
音轨 10  精确地校准抓取  1)  [50F5E070]  (AR v2)
音轨 11  精确地校准抓取  1)  [EB96505B]  (AR v2)

所有音轨精确校准抓取

状态报告结尾

---- CUETools DB Plugin V2.1.6

[CTDB TOCID: CYf8PTuZKpFoLdKv7NwsvCc_isY-] database access error: 操作超时


==== 记录校验日志 F5EB2006A1092BCCF14206FE75919E79032835AA7793FFCB7FDA87CF3EFB6235 ====

评分

参与人数 1CD +200 包子 +2 收起 理由
CDbao + 200 + 2 感谢分享资源,CD包因你而精彩.

查看全部评分




上一篇:原抓:Beyond《Beyond的精彩 CD1》1996 整轨WAV+LOG/百度
下一篇:原抓:王菲《将爱》2003 整轨WAV+LOG/百度
 成长值: 770

0

主题

5

帖子

47

积分

VIP2

Rank: 5Rank: 5

积分
47
发表于 2016-11-10 14:26:33 | 显示全部楼层
想到一个冷笑话,范范范玮琪。
 成长值: 100

0

主题

109

帖子

172

积分

VIP1

Rank: 4

积分
172
发表于 2016-11-26 09:03:57 | 显示全部楼层
学生时代买过这张CD,范范很经典的一张专辑,感谢分享收藏了!
您需要登录后才可以回帖 登录 | 注册

本版积分规则

快速回复 返回顶部 返回列表