查看: 913|回复: 4

[华语] 原抓:刀郎《2002年的第一场雪》2004 整轨WAV+LOG/百度

[复制链接]

58

主题

116

帖子

1万

积分

流行教主

Rank: 6Rank: 6

积分
12894
发表于 2016-4-1 22:31:57 | 显示全部楼层 |阅读模式

注册会员,获得无损资源下载地址,享受高品质音乐。

您需要 登录 才可以下载或查看,没有帐号?注册

x
IMG_0428.JPG
IMG_0430.JPG
IMG_0387.JPG
中文名称:2002年的第一场雪
专辑语言:国语
专辑歌手:刀郎
曲目数量:12
发行时间:2004.03.25
音乐风格:新疆民乐,流行
唱片公司:天津音像
发行地区:中国大陆

专辑介绍:

《2002年的第一场雪》是刀郎2004年发行的专辑,共收录了12首歌曲。专辑的制作人由刀郎担任,专辑中除了《新疆好》、《萨拉姆毛主席》、《驼铃》等翻唱的歌曲外,另有一半由刀郎作词作曲完成。

2005年,该专辑获得了第5届中国金唱片奖通俗类专辑奖,第2届中国唱片金碟奖内地最佳唱片,同时歌手刀郎凭借这张专辑获得第5届华语音乐传媒大奖最佳国语男歌手以及年度艺人奖。

专缉《2002年的第一场雪》是刀郎继《西域情歌》之后又一次对新疆音乐的探索。《2002年的第一场雪》延续了《西域情歌》的制作风格,将新疆民乐融于各种流行元素中,除了《新疆好》、《萨拉姆毛主席》、《驼铃》等脍炙人口的翻唱歌曲外,另有一半是歌手兼制作人刀郎近年来创作的原创歌曲。原创作品中描述的是人们所熟知的环境,乌鲁木齐的大街小巷都在其中。专辑整体上既有浓郁的新疆风格,又流畅上口旋律优美,让人不仅深深的浸入那种悠远苍茫的音乐世界。

这是新疆歌手刀郎的首张专辑,听完《2002年的第一场雪》这张专辑之后的感觉:旋律简单、流畅、耐听,歌词直白、不复杂,嗓音未经修饰,有质感、有张力。

《2002年的第一场雪》这张专辑将新疆民乐融于各种流行元素中,在《新疆好》、《萨拉姆毛主席》、《驼铃》等几首翻唱的老歌中,刀郎也唱出了自己的个人特色,只是由于编曲的简单,这种特色远不如刀郎自己创作的作品来得那么直接。《2002年的第一场雪》《雨中飘荡的记忆》《新阿瓦尔古丽》等,既有浓郁的新疆风格,旋律也并不复杂,流畅上口旋律优美,加上刀郎的独特嗓音,那股男人的“糙”劲儿,很适合许多男人的情怀。

这张专辑,虽然节奏突出,风格粗犷,但是却又一种宁静在里面,去除都市繁华浮躁的宁静,音乐中流露出西域天空与沙漠的广袤和清静。刀郎的嗓音略带沙哑,浑厚,与新疆音乐的豪放非常吻合,同时他的演唱深沉,凝重,把各种情调的歌都演唱的非常有张力。

专辑曲目:

01 2002年的第一场雪
02 新阿瓦尔古丽
03 新疆好
04 萨拉姆毛主席
05 艾里甫与赛乃姆
06 情人
07 草原之夜
08 祝酒歌
09 敖包相会
10 雨中飘荡的回忆
11 驼铃
12 冲动的惩罚

百度下载:
游客,如果您要查看本帖隐藏内容请回复



======================================
Exact Audio Copy V1.1 from 23. June 2015

EAC 抓取日志文件从15. 三月 2016, 2:02

刀郎 / 2002年的第一场雪

使用驱动器  :ASUS    DRW-24D1ST   Adapter: 1  ID: 0

读取模式      : 可靠Secure
使用精确流     : 是
清空音频缓存    : 是
使用 C2 指示器 : 否

读取偏移校正:               : 667
读取 Lead-In 和 Lead-Out : 否
用静音填充抓取中丢失偏移的采样       : 是
去除首尾静音块               : 否
在CRC 计算中使用了空样本       : 是
已用接口                  : Win NT 及 2000 本地 Win32 接口

所用输出模式: : 内部 WAV 函数
样本格式    : 44.100 Hz; 16 Bit; 立体声


已抓取 CD 的 TOC

     音轨 |    起始    |    长度    |  起始扇区  |  结束扇区  
    --------------------------------------------
      1 |  0:00.00 |  4:20.41 |      0 |  19540
      2 |  4:20.41 |  4:19.23 |  19541 |  38988
      3 |  8:39.64 |  4:36.73 |  38989 |  59761
      4 | 13:16.62 |  4:20.05 |  59762 |  79266
      5 | 17:36.67 |  5:49.38 |  79267 | 105479
      6 | 23:26.30 |  3:13.49 | 105480 | 120003
      7 | 26:40.04 |  4:24.62 | 120004 | 139865
      8 | 31:04.66 |  4:00.17 | 139866 | 157882
      9 | 35:05.08 |  4:31.28 | 157883 | 178235
     10 | 39:36.36 |  4:12.41 | 178236 | 197176
     11 | 43:49.02 |  4:43.67 | 197177 | 218468
     12 | 48:32.69 |  7:53.41 | 218469 | 253984


范围状态及错误

已选择范围

     文件名 C:\Users\liuliu\Desktop\刀郎-2002年的第一场雪\刀郎 - 2002年的第一场雪.wav

     峰值电平 86.4 %
     抓取速度 7.4 X
     范围质量 100.0 %
     复制 CRC C50126FB
     复制成功

没有错误发生


AccurateRip 摘要

音轨  1  在数据库中不存在
音轨  2  在数据库中不存在
音轨  3  在数据库中不存在
音轨  4  在数据库中不存在
音轨  5  在数据库中不存在
音轨  6  在数据库中不存在
音轨  7  在数据库中不存在
音轨  8  在数据库中不存在
音轨  9  在数据库中不存在
音轨 10  在数据库中不存在
音轨 11  在数据库中不存在
音轨 12  在数据库中不存在

没有任何音轨在 AccurateRip 数据库中有记录

状态报告结尾

---- CUETools DB Plugin V2.1.6

[CTDB TOCID: AZZEnMLvXX3fNAdVU7lQvascwTs-] found
Submit result: AZZEnMLvXX3fNAdVU7lQvascwTs- has been confirmed
Track | CTDB Status
  1   | (34/34) Accurately ripped
  2   | (34/34) Accurately ripped
  3   | (34/34) Accurately ripped
  4   | (34/34) Accurately ripped
  5   | (34/34) Accurately ripped
  6   | (34/34) Accurately ripped
  7   | (34/34) Accurately ripped
  8   | (34/34) Accurately ripped
  9   | (33/34) Accurately ripped
10   | (33/34) Accurately ripped
11   | (33/34) Accurately ripped
12   | (32/34) Accurately ripped


==== 记录校验日志 93891CBB006A5B79B47438B732EF5809A325F68CC096859A1FB46BAB4F264186 ====

------------------------------------------------------------

Exact Audio Copy V1.1 from 23. June 2015

EAC 抓取日志文件从15. 三月 2016, 2:02

刀郎 / 2002年的第一场雪

使用驱动器  :ASUS    DRW-24D1ST   Adapter: 1  ID: 0

读取模式      : 可靠Secure
使用精确流     : 是
清空音频缓存    : 是
使用 C2 指示器 : 否

读取偏移校正:               : 667
读取 Lead-In 和 Lead-Out : 否
用静音填充抓取中丢失偏移的采样       : 是
去除首尾静音块               : 否
在CRC 计算中使用了空样本       : 是
已用接口                  : Win NT 及 2000 本地 Win32 接口

所用输出模式: : 内部 WAV 函数
样本格式    : 44.100 Hz; 16 Bit; 立体声


已抓取 CD 的 TOC

     音轨 |    起始    |    长度    |  起始扇区  |  结束扇区  
    --------------------------------------------
      1 |  0:00.00 |  4:20.41 |      0 |  19540
      2 |  4:20.41 |  4:19.23 |  19541 |  38988
      3 |  8:39.64 |  4:36.73 |  38989 |  59761
      4 | 13:16.62 |  4:20.05 |  59762 |  79266
      5 | 17:36.67 |  5:49.38 |  79267 | 105479
      6 | 23:26.30 |  3:13.49 | 105480 | 120003
      7 | 26:40.04 |  4:24.62 | 120004 | 139865
      8 | 31:04.66 |  4:00.17 | 139866 | 157882
      9 | 35:05.08 |  4:31.28 | 157883 | 178235
     10 | 39:36.36 |  4:12.41 | 178236 | 197176
     11 | 43:49.02 |  4:43.67 | 197177 | 218468
     12 | 48:32.69 |  7:53.41 | 218469 | 253984


范围状态及错误

已选择范围

     文件名 C:\Users\liuliu\Desktop\刀郎-2002年的第一场雪\刀郎 - 2002年的第一场雪.wav

     峰值电平 86.4 %
     抓取速度 7.4 X
     范围质量 100.0 %
     复制 CRC C50126FB
     复制成功

没有错误发生


AccurateRip 摘要

音轨  1  在数据库中不存在
音轨  2  在数据库中不存在
音轨  3  在数据库中不存在
音轨  4  在数据库中不存在
音轨  5  在数据库中不存在
音轨  6  在数据库中不存在
音轨  7  在数据库中不存在
音轨  8  在数据库中不存在
音轨  9  在数据库中不存在
音轨 10  在数据库中不存在
音轨 11  在数据库中不存在
音轨 12  在数据库中不存在

没有任何音轨在 AccurateRip 数据库中有记录

状态报告结尾

---- CUETools DB Plugin V2.1.6

[CTDB TOCID: AZZEnMLvXX3fNAdVU7lQvascwTs-] found
Submit result: AZZEnMLvXX3fNAdVU7lQvascwTs- has been confirmed
Track | CTDB Status
  1   | (34/34) Accurately ripped
  2   | (34/34) Accurately ripped
  3   | (34/34) Accurately ripped
  4   | (34/34) Accurately ripped
  5   | (34/34) Accurately ripped
  6   | (34/34) Accurately ripped
  7   | (34/34) Accurately ripped
  8   | (34/34) Accurately ripped
  9   | (33/34) Accurately ripped
10   | (33/34) Accurately ripped
11   | (33/34) Accurately ripped
12   | (32/34) Accurately ripped


==== 记录校验日志 93891CBB006A5B79B47438B732EF5809A325F68CC096859A1FB46BAB4F264186 ====

评分

参与人数 1CD +240 包子 +5 收起 理由
最终之战 + 240 + 5

查看全部评分




上一篇:原抓:周杰伦《精彩篇》2002 整轨WAV+LOG/百度
下一篇:原抓:Beyond《Beyond的精彩 CD2》1996 整轨WAV+LOG/百度

3082

主题

4257

帖子

55万

积分

音乐主神

Rank: 10Rank: 10Rank: 10

积分
553139

社区QQ达人精华帖达人分享勋章灌水勋章

发表于 2016-4-2 06:23:43 | 显示全部楼层
下这场雪的时候  还在上高中   舍友满墙贴的都是他跟f 4的海报   

0

主题

51

帖子

85

积分

新人会员,请认真回复,若恶意回复,直接封号

Rank: 1

积分
85
发表于 2016-4-3 17:23:22 | 显示全部楼层
感谢分享,楼主辛苦了。。。。。。。

9

主题

44

帖子

14

积分

新人会员,请认真回复,若恶意回复,直接封号

Rank: 1

积分
14
发表于 2016-8-26 02:15:41 | 显示全部楼层
记得“2002年的第一场雪”是朋友介绍听得,当时觉得曲风太古怪,所以没有什么再听,现在想起他,试试下载听听
 成长值: 770

0

主题

5

帖子

47

积分

VIP2

Rank: 5Rank: 5

积分
47
发表于 2016-11-10 14:25:52 | 显示全部楼层
刀郎那时候厉害啊
您需要登录后才可以回帖 登录 | 注册

本版积分规则

快速回复 返回顶部 返回列表