查看: 830|回复: 4

[华语] 原抓:许巍《在路上》2006 整轨WAV+LOG/百度

[复制链接]

58

主题

116

帖子

1万

积分

流行教主

Rank: 6Rank: 6

积分
12893
发表于 2016-3-13 22:58:02 | 显示全部楼层 |阅读模式

注册会员,获得无损资源下载地址,享受高品质音乐。

您需要 登录 才可以下载或查看,没有帐号?注册

x
专辑封面:

IMG_0092.JPG
IMG_0093.JPG
IMG_0147.JPG

歌手: 许巍.
音乐风格: 摇滚
资源格式: APE
发行时间: 2006年02月16日
地区: 大陆
语言: 普通话


专辑介绍:

每个人的过去都有一首许巍的歌,十年积累,这一刻如烟火绽放,中国原创乐坛的骄傲!赞颂好音乐的永垂不朽!许巍重唱历年创作经典!《在路上》虽然是一张原汁原味的原创作品辑,不过里面收录的不是“新”歌,而是曾经被其他歌手演绎过、出自许巍手笔的经典作品,其中包括了田震的《执著》、老狼的《晴朗》、叶蓓的《彩虹》、王菲的《你》等12首历年来的经典作品。

  当年,许巍年那首确立了其个人未来风格的《两天》并没有使多少人留意他,但是他为其他歌手做嫁衣、亲手打造的许多作品却在后来的几年当中不断地被印证了拥有极高的水准;而选择以这样一个方式集结出版这样一张具有代表性的创作专辑,对于许巍来说意义非凡,他是要用音乐来纪念这么多年的生活体验、用音乐记录这些音乐旅程的片段。《在路上》专辑的推出,代表了许巍一段音乐旅程的结束、但同时也是新音乐旅程的开始。


专辑曲目:

01.晴朗 (2002 老狼 晴朗专辑 词曲:许巍)
02.彩虹 (2002 叶蓓 双鱼专辑 词曲:许巍)
03.你 (1998王菲 唱游 词:黄伟文 曲:许巍)
04.像风一样自由 (1996 谢东 为你再等候 词曲:许巍)
05.那里(空位)(2003 纪如景 寂寞的自由 词 张新宇 曲 许巍)
06.丁香 (1996 希莉娜依同名专辑 词:许巍 张新宇 曲:许巍)
07.纯粹 (2004 姜昕 纯粹 词:姜昕 曲:许巍)
08.自由自在 (1995 田震 野花专辑词:张新宇、宁江、栾述伟,曲:许巍)
09.幻觉 (1996 希莉纳依同名专辑词:许巍、张新宇曲:许巍)
10.执着 (1994 田震 红星一号 词曲:许巍)
Bonus Tracks
11.青鸟 (1994 许巍 红星二号 词曲:许巍)
12.两天 (1994 许巍 红星一号 词:许巍 盛立 曲:许巍)


================
百度下载:
游客,如果您要查看本帖隐藏内容请回复





================================
Exact Audio Copy V1.1 from 23. June 2015

EAC 抓取日志文件从12. 三月 2016, 3:07

许巍 / 在路上

使用驱动器  :ASUS    DRW-24D1ST   Adapter: 1  ID: 0

读取模式      : 可靠Secure
使用精确流     : 是
清空音频缓存    : 是
使用 C2 指示器 : 否

读取偏移校正:               : 667
读取 Lead-In 和 Lead-Out : 否
用静音填充抓取中丢失偏移的采样       : 是
去除首尾静音块               : 否
在CRC 计算中使用了空样本       : 是
已用接口                  : Win NT 及 2000 本地 Win32 接口

所用输出模式: : 内部 WAV 函数
样本格式    : 44.100 Hz; 16 Bit; 立体声


已抓取 CD 的 TOC

     音轨 |    起始    |    长度    |  起始扇区  |  结束扇区  
    --------------------------------------------
      1 |  0:00.00 |  6:05.04 |      0 |  27378
      2 |  6:05.04 |  4:24.56 |  27379 |  47234
      3 | 10:29.60 |  5:06.46 |  47235 |  70230
      4 | 15:36.31 |  3:41.47 |  70231 |  86852
      5 | 19:18.03 |  4:16.64 |  86853 | 106116
      6 | 23:34.67 |  4:37.23 | 106117 | 126914
      7 | 28:12.15 |  5:10.21 | 126915 | 150185
      8 | 33:22.36 |  4:27.60 | 150186 | 170270
      9 | 37:50.21 |  4:28.70 | 170271 | 190440
     10 | 42:19.16 |  4:38.51 | 190441 | 211341
     11 | 46:57.67 |  4:08.39 | 211342 | 229980
     12 | 51:06.31 |  5:04.71 | 229981 | 252851


范围状态及错误

已选择范围

     文件名 C:\Users\liuliu\Desktop\许巍-在路上\许巍 - 在路上.wav

     峰值电平 100.0 %
     抓取速度 7.4 X
     范围质量 100.0 %
     复制 CRC 445F7E4B
     复制成功

没有错误发生


AccurateRip 摘要

音轨  1  在数据库中不存在
音轨  2  在数据库中不存在
音轨  3  在数据库中不存在
音轨  4  在数据库中不存在
音轨  5  在数据库中不存在
音轨  6  在数据库中不存在
音轨  7  在数据库中不存在
音轨  8  在数据库中不存在
音轨  9  在数据库中不存在
音轨 10  在数据库中不存在
音轨 11  在数据库中不存在
音轨 12  在数据库中不存在

没有任何音轨在 AccurateRip 数据库中有记录

状态报告结尾

---- CUETools DB Plugin V2.1.6

[CTDB TOCID: n_J21IGMccmodYyaZG1b5lNnTVA-] found
Submit result: n_J21IGMccmodYyaZG1b5lNnTVA- has been confirmed
Track | CTDB Status
  1   | (12/12) Accurately ripped
  2   | (12/12) Accurately ripped
  3   | (12/12) Accurately ripped
  4   | (12/12) Accurately ripped
  5   | (12/12) Accurately ripped
  6   | (12/12) Accurately ripped
  7   | (12/12) Accurately ripped
  8   | (11/12) Accurately ripped
  9   | (10/12) Accurately ripped
10   | (12/12) Accurately ripped
11   | (11/12) Accurately ripped
12   | (11/12) Accurately ripped


==== 记录校验日志 156AEAFF42D48E5E6FD4E0DCF35E7BE19FF830BFE8B7FBAF4E34167018DA5B36 ====

------------------------------------------------------------

Exact Audio Copy V1.1 from 23. June 2015

EAC 抓取日志文件从12. 三月 2016, 3:08

许巍 / 在路上

使用驱动器  :ASUS    DRW-24D1ST   Adapter: 1  ID: 0

读取模式      : 可靠Secure
使用精确流     : 是
清空音频缓存    : 是
使用 C2 指示器 : 否

读取偏移校正:               : 667
读取 Lead-In 和 Lead-Out : 否
用静音填充抓取中丢失偏移的采样       : 是
去除首尾静音块               : 否
在CRC 计算中使用了空样本       : 是
已用接口                  : Win NT 及 2000 本地 Win32 接口

所用输出模式: : 内部 WAV 函数
样本格式    : 44.100 Hz; 16 Bit; 立体声


已抓取 CD 的 TOC

     音轨 |    起始    |    长度    |  起始扇区  |  结束扇区  
    --------------------------------------------
      1 |  0:00.00 |  6:05.04 |      0 |  27378
      2 |  6:05.04 |  4:24.56 |  27379 |  47234
      3 | 10:29.60 |  5:06.46 |  47235 |  70230
      4 | 15:36.31 |  3:41.47 |  70231 |  86852
      5 | 19:18.03 |  4:16.64 |  86853 | 106116
      6 | 23:34.67 |  4:37.23 | 106117 | 126914
      7 | 28:12.15 |  5:10.21 | 126915 | 150185
      8 | 33:22.36 |  4:27.60 | 150186 | 170270
      9 | 37:50.21 |  4:28.70 | 170271 | 190440
     10 | 42:19.16 |  4:38.51 | 190441 | 211341
     11 | 46:57.67 |  4:08.39 | 211342 | 229980
     12 | 51:06.31 |  5:04.71 | 229981 | 252851


范围状态及错误

已选择范围

     文件名 C:\Users\liuliu\Desktop\许巍-在路上\许巍 - 在路上.wav

     峰值电平 100.0 %
     抓取速度 7.4 X
     范围质量 100.0 %
     复制 CRC 445F7E4B
     复制成功

没有错误发生


AccurateRip 摘要

音轨  1  在数据库中不存在
音轨  2  在数据库中不存在
音轨  3  在数据库中不存在
音轨  4  在数据库中不存在
音轨  5  在数据库中不存在
音轨  6  在数据库中不存在
音轨  7  在数据库中不存在
音轨  8  在数据库中不存在
音轨  9  在数据库中不存在
音轨 10  在数据库中不存在
音轨 11  在数据库中不存在
音轨 12  在数据库中不存在

没有任何音轨在 AccurateRip 数据库中有记录

状态报告结尾

---- CUETools DB Plugin V2.1.6

[CTDB TOCID: n_J21IGMccmodYyaZG1b5lNnTVA-] found
Submit result: n_J21IGMccmodYyaZG1b5lNnTVA- has been confirmed
Track | CTDB Status
  1   | (12/12) Accurately ripped
  2   | (12/12) Accurately ripped
  3   | (12/12) Accurately ripped
  4   | (12/12) Accurately ripped
  5   | (12/12) Accurately ripped
  6   | (12/12) Accurately ripped
  7   | (12/12) Accurately ripped
  8   | (11/12) Accurately ripped
  9   | (10/12) Accurately ripped
10   | (12/12) Accurately ripped
11   | (11/12) Accurately ripped
12   | (11/12) Accurately ripped


==== 记录校验日志 8630763F201A97B2FABBAADAAF9949534E087D5FA9F8E995BCA388997B41E95F ====

评分

参与人数 1CD +300 包子 +3 收起 理由
CDbao + 300 + 3 感谢分享资源,CD包因你而精彩.

查看全部评分




上一篇:原抓:许巍《每一刻都是崭新的》2005 整轨WAV+LOG/百度
下一篇:原抓:许巍《一时(Remix概念精选辑)》2011 整轨WAV+LOG/百度
 成长值: 19575

6466

主题

1万

帖子

8万

积分

音乐掌门人

Rank: 20Rank: 20Rank: 20Rank: 20Rank: 20

积分
83762

名人勋章社区QQ达人分享勋章精华帖达人灌水勋章

发表于 2016-3-15 10:19:30 | 显示全部楼层
我最喜欢“像风一样自由”这首歌了
关于链接失效的说明(度盘+115盘+快传 好友分享的说明)
http://www.cdbao.net/thread-117499-1-1.html     
紧急通告:115,快传等网盘取消了分享功能礼包码链接全部失效
http://www.cdbao.net/thread-122759-1-1.html

252

主题

1073

帖子

6万

积分

天王巨星

金属๑۩۞۩๑王国

Rank: 7Rank: 7Rank: 7

积分
62801

社区QQ达人分享勋章灌水勋章精华帖达人

发表于 2016-3-17 11:19:13 | 显示全部楼层
一个一天一个两天,不过还是一天好听!
瞬间死亡115账号:12142694

互助求砖金属q群:295379995

0

主题

32

帖子

109

积分

新人会员,请认真回复,若恶意回复,直接封号

Rank: 1

积分
109

社区QQ达人

发表于 2016-8-23 15:58:20 | 显示全部楼层
我也是最喜欢像风一样自由
 成长值: 680

0

主题

17

帖子

78

积分

VIP2

Rank: 5Rank: 5

积分
78
发表于 2016-9-29 18:03:06 | 显示全部楼层
许巍《在路上》2006 整轨WAV+LOG/百度
您需要登录后才可以回帖 登录 | 注册

本版积分规则

快速回复 返回顶部 返回列表