查看: 700|回复: 4

[华语] 原抓:许巍《爱如少年》2008 整轨WAV+LOG/百度

[复制链接]

58

主题

116

帖子

1万

积分

流行教主

Rank: 6Rank: 6

积分
12895
发表于 2016-3-12 23:24:50 | 显示全部楼层 |阅读模式

注册会员,获得无损资源下载地址,享受高品质音乐。

您需要 登录 才可以下载或查看,没有帐号?注册

x
专辑封面:

IMG_0107.JPG
IMG_0110.JPG
IMG_0152.JPG


专辑: 爱如少年
歌手: 许巍
发行时间: 2008年10月15日
地区: 大陆
语言: 普通话
专辑类型: 国语流行/摇滚
唱片公司: 金牌大风


专辑介绍:

历经四年的筛选和反复推敲之后,许巍的第五张专辑终于出炉,这张专辑背后的制作班底几乎囊括了各个国家的顶级音乐制作人。两年的时间中,许巍从100多首歌中逐一选出了这12首歌。

与以往的专辑相比,这张《爱如少年》的整体风格给人的感觉是更加淡然的,少了之前的那种年少轻狂的张扬和叛逆,有人说许巍老了,但是他自己更愿意将这种淡然归结于对于生活的深刻感受。

聆听许巍第5张全新专辑「爱如少年」,我们可以发现比上一张专辑「每一刻都是崭新的」更加淡定与宁静。

作为个人创作分水岭之作的「每一刻都是崭新的」,告别了过往的茫然不安、激情犹疑,走入温暖闪亮的世界,更贴近真实也更贴近生活,咏叹过去亦赞美当时;有人觉得平淡无味了,不够张狂不够呐喊,但这才是许巍走向人生彩虹的时刻,并且踏踏实实的在路上。


生命会远去 爱不会
生活会老去 少年不会
世界无尽的热情与冷静  爱如少年...


专辑曲目:

01. 爱
02. 彩云之巅
03. 故事
04. 我们
05. 家
06. 美丽的女人
07. 幸福
08. 天使
09. 道路
10. 难忘的一天
11. 四季
12. 少年
13. Bonus Track:风行(李宁广告歌)乐队版


================
百度下载:
游客,如果您要查看本帖隐藏内容请回复




这张专辑的歌都不错,适合慢慢听。




================================
Exact Audio Copy V1.1 from 23. June 2015

EAC 抓取日志文件从11. 三月 2016, 23:12

许巍 / 爱如少年

使用驱动器  :ASUS    DRW-24D1ST   Adapter: 1  ID: 0

读取模式      : 可靠Secure
使用精确流     : 是
清空音频缓存    : 是
使用 C2 指示器 : 否

读取偏移校正:               : 667
读取 Lead-In 和 Lead-Out : 否
用静音填充抓取中丢失偏移的采样       : 是
去除首尾静音块               : 否
在CRC 计算中使用了空样本       : 是
已用接口                  : Win NT 及 2000 本地 Win32 接口

所用输出模式: : 内部 WAV 函数
样本格式    : 44.100 Hz; 16 Bit; 立体声


已抓取 CD 的 TOC

     音轨 |    起始    |    长度    |  起始扇区  |  结束扇区  
    --------------------------------------------
      1 |  0:00.00 |  5:07.68 |      0 |  23092
      2 |  5:07.68 |  4:20.06 |  23093 |  42598
      3 |  9:27.74 |  4:19.49 |  42599 |  62072
      4 | 13:47.48 |  4:21.59 |  62073 |  81706
      5 | 18:09.32 |  4:42.53 |  81707 | 102909
      6 | 22:52.10 |  3:17.24 | 102910 | 117708
      7 | 26:09.34 |  3:48.47 | 117709 | 134855
      8 | 29:58.06 |  3:00.33 | 134856 | 148388
      9 | 32:58.39 |  3:33.48 | 148389 | 164411
     10 | 36:32.12 |  4:21.46 | 164412 | 184032
     11 | 40:53.58 |  4:56.53 | 184033 | 206285
     12 | 45:50.36 |  5:11.52 | 206286 | 229662
     13 | 51:02.13 |  3:39.18 | 229663 | 246105


范围状态及错误

已选择范围

     文件名 C:\Users\liuliu\Desktop\许巍-爱如少年\许巍 - 爱如少年.wav

     峰值电平 100.0 %
     抓取速度 7.0 X
     范围质量 99.9 %
     复制 CRC 03D25690
     复制成功

没有错误发生


AccurateRip 摘要

音轨  1  在数据库中不存在
音轨  2  在数据库中不存在
音轨  3  在数据库中不存在
音轨  4  在数据库中不存在
音轨  5  在数据库中不存在
音轨  6  在数据库中不存在
音轨  7  在数据库中不存在
音轨  8  在数据库中不存在
音轨  9  在数据库中不存在
音轨 10  在数据库中不存在
音轨 11  在数据库中不存在
音轨 12  在数据库中不存在
音轨 13  在数据库中不存在

没有任何音轨在 AccurateRip 数据库中有记录

状态报告结尾

---- CUETools DB Plugin V2.1.6

[CTDB TOCID: fnOE5AhBkXtdXnqkO7RZApZqeNI-] found
Submit result: fnOE5AhBkXtdXnqkO7RZApZqeNI- has been confirmed
Track | CTDB Status
  1   | (11/11) Accurately ripped
  2   | (11/11) Accurately ripped
  3   | (11/11) Accurately ripped
  4   | (11/11) Accurately ripped
  5   | (11/11) Accurately ripped
  6   | (10/11) Accurately ripped
  7   | (11/11) Accurately ripped
  8   | (11/11) Accurately ripped
  9   | (10/11) Accurately ripped
10   | (11/11) Accurately ripped
11   | (10/11) Accurately ripped
12   | (11/11) Accurately ripped
13   | (11/11) Accurately ripped


==== 记录校验日志 3CFF5BAEC816FE0942979CBDAF1FE007222EBFC083E424D942446B594941FFD0 ====

------------------------------------------------------------

Exact Audio Copy V1.1 from 23. June 2015

EAC 抓取日志文件从11. 三月 2016, 23:12

许巍 / 爱如少年

使用驱动器  :ASUS    DRW-24D1ST   Adapter: 1  ID: 0

读取模式      : 可靠Secure
使用精确流     : 是
清空音频缓存    : 是
使用 C2 指示器 : 否

读取偏移校正:               : 667
读取 Lead-In 和 Lead-Out : 否
用静音填充抓取中丢失偏移的采样       : 是
去除首尾静音块               : 否
在CRC 计算中使用了空样本       : 是
已用接口                  : Win NT 及 2000 本地 Win32 接口

所用输出模式: : 内部 WAV 函数
样本格式    : 44.100 Hz; 16 Bit; 立体声


已抓取 CD 的 TOC

     音轨 |    起始    |    长度    |  起始扇区  |  结束扇区  
    --------------------------------------------
      1 |  0:00.00 |  5:07.68 |      0 |  23092
      2 |  5:07.68 |  4:20.06 |  23093 |  42598
      3 |  9:27.74 |  4:19.49 |  42599 |  62072
      4 | 13:47.48 |  4:21.59 |  62073 |  81706
      5 | 18:09.32 |  4:42.53 |  81707 | 102909
      6 | 22:52.10 |  3:17.24 | 102910 | 117708
      7 | 26:09.34 |  3:48.47 | 117709 | 134855
      8 | 29:58.06 |  3:00.33 | 134856 | 148388
      9 | 32:58.39 |  3:33.48 | 148389 | 164411
     10 | 36:32.12 |  4:21.46 | 164412 | 184032
     11 | 40:53.58 |  4:56.53 | 184033 | 206285
     12 | 45:50.36 |  5:11.52 | 206286 | 229662
     13 | 51:02.13 |  3:39.18 | 229663 | 246105


范围状态及错误

已选择范围

     文件名 C:\Users\liuliu\Desktop\许巍-爱如少年\许巍 - 爱如少年.wav

     峰值电平 100.0 %
     抓取速度 7.0 X
     范围质量 99.9 %
     复制 CRC 03D25690
     复制成功

没有错误发生


AccurateRip 摘要

音轨  1  在数据库中不存在
音轨  2  在数据库中不存在
音轨  3  在数据库中不存在
音轨  4  在数据库中不存在
音轨  5  在数据库中不存在
音轨  6  在数据库中不存在
音轨  7  在数据库中不存在
音轨  8  在数据库中不存在
音轨  9  在数据库中不存在
音轨 10  在数据库中不存在
音轨 11  在数据库中不存在
音轨 12  在数据库中不存在
音轨 13  在数据库中不存在

没有任何音轨在 AccurateRip 数据库中有记录

状态报告结尾

---- CUETools DB Plugin V2.1.6

[CTDB TOCID: fnOE5AhBkXtdXnqkO7RZApZqeNI-] found
Submit result: fnOE5AhBkXtdXnqkO7RZApZqeNI- has been confirmed
Track | CTDB Status
  1   | (11/11) Accurately ripped
  2   | (11/11) Accurately ripped
  3   | (11/11) Accurately ripped
  4   | (11/11) Accurately ripped
  5   | (11/11) Accurately ripped
  6   | (10/11) Accurately ripped
  7   | (11/11) Accurately ripped
  8   | (11/11) Accurately ripped
  9   | (10/11) Accurately ripped
10   | (11/11) Accurately ripped
11   | (10/11) Accurately ripped
12   | (11/11) Accurately ripped
13   | (11/11) Accurately ripped


==== 记录校验日志 3CFF5BAEC816FE0942979CBDAF1FE007222EBFC083E424D942446B594941FFD0 ====

评分

参与人数 1CD +240 包子 +5 收起 理由
最终之战 + 240 + 5 精彩的帖子,辛苦了

查看全部评分




上一篇:原抓:许巍《时光 . 漫步》2002 整轨WAV+LOG/百度
下一篇:最终:黑湖Black Lake《Fight Battle War》2014限量150张手写编号NO.80
 成长值: 19650

6540

主题

1万

帖子

8万

积分

音乐掌门人

Rank: 20Rank: 20Rank: 20Rank: 20Rank: 20

积分
84397

名人勋章社区QQ达人分享勋章精华帖达人灌水勋章

发表于 2016-3-12 23:50:29 | 显示全部楼层
无损的虽然都有,但是原抓必须收的!
关于链接失效的说明(度盘+115盘+快传 好友分享的说明)
http://www.cdbao.net/thread-117499-1-1.html     
紧急通告:115,快传等网盘取消了分享功能礼包码链接全部失效
http://www.cdbao.net/thread-122759-1-1.html

252

主题

1073

帖子

6万

积分

天王巨星

金属๑۩۞۩๑王国

Rank: 7Rank: 7Rank: 7

积分
62802

社区QQ达人分享勋章灌水勋章精华帖达人

发表于 2016-3-13 11:13:18 | 显示全部楼层
原抓收取那是必须的,赞起来!
瞬间死亡115账号:12142694

互助求砖金属q群:295379995

0

主题

32

帖子

109

积分

新人会员,请认真回复,若恶意回复,直接封号

Rank: 1

积分
109

社区QQ达人

发表于 2016-8-23 16:03:14 | 显示全部楼层
原抓的确实必须收
 成长值: 730

0

主题

17

帖子

78

积分

VIP2

Rank: 5Rank: 5

积分
78
发表于 2016-9-29 18:04:47 | 显示全部楼层
许巍《爱如少年》2008 整轨WAV+LOG/百度
您需要登录后才可以回帖 登录 | 注册

本版积分规则

快速回复 返回顶部 返回列表