查看: 800|回复: 8

(应求)嘻哈:Future《DS2》2015/FLAC/BD

[复制链接]
 成长值: 19665

6549

主题

1万

帖子

8万

积分

音乐掌门人

Rank: 20Rank: 20Rank: 20Rank: 20Rank: 20

积分
84459

名人勋章社区QQ达人分享勋章精华帖达人灌水勋章

发表于 2016-3-2 16:40:00 | 显示全部楼层 |阅读模式

注册会员,获得无损资源下载地址,享受高品质音乐。

您需要 登录 才可以下载或查看,没有帐号?注册

x
Cover.jpeg

艺人:Future
语种:英语
唱片公司:Epic Records
发行时间:2015年07月17日
专辑类别:录音室专辑

01. "Thought It Was a Drought" (4:24)
02. "I Serve the Base" (3:08)
03. Where Ya At (feat. Drake) (3:27)
04. "Groupies" (3:06)
05. "Lil One" (3:27)
06. "Stick Talk" (2:50)
07. "Freak Hoe" (2:54)
08. "Rotation" (2:45)
09. "Slave Master" (3:18)
10. "Blow a Bag" (3:19)
11. "Colossal" (3:04)
12. "Rich $ex" (4:00)
13. "Blood On the Money" (4:46)
Deluxe Edition:
14. "Trap Niggas" (3:04)
15. "The Percocet & Stripper Joint" (2:36)
16. "Real Sisters" (2:54)
17. "Kno the Meaning" (3:45)
18. "Fuck Up Some Commas" (3:57)


Exact Audio Copy V1.0 beta 3 from 29. August 2011
EAC extraction logfile from 17. July 2015, 22:28
Future / DS2
Used drive  : HL-DT-STBD-RE  WH16NS40   Adapter: 4  ID: 0
Read mode               : Secure
Utilize accurate stream : Yes
Defeat audio cache      : Yes
Make use of C2 pointers : No
Read offset correction                      : 6
Overread into Lead-In and Lead-Out          : No
Fill up missing offset samples with silence : Yes
Delete leading and trailing silent blocks   : No
Null samples used in CRC calculations       : Yes
Used interface                              : Native Win32 interface for Win NT & 2000
Gap handling                                : Appended to previous track
Used output format              : User Defined Encoder
Selected bitrate                : 896 kBit/s
Quality                         : High
Add ID3 tag                     : No
Command line compressor         : F:\Program Files (x86)\FLAC\flac.exe
Additional command line options : -8 -V -T "ARTIST=%artist%" -T "TITLE=%title%" -T "ALBUM=%albumtitle%" -T "DATE=%year%" -T "TRACKNUMBER=%tracknr%" -T "GENRE=%genre%" -T "PERFORMER=%albuminterpret%" -T "COMPOSER=%composer%" %haslyrics%--tag-from-file=LYRICS="%lyricsfile%"%haslyrics% -T "ALBUMARTIST=%albumartist%" -T "DISCNUMBER=%cdnumber%" -T "TOTALDISCS=%totalcds%" -T "TOTALTRACKS=%numtracks%" -T "COMMENT=%comment%" %source% -o %dest%
TOC of the extracted CD
     Track |   Start  |  Length  | Start sector | End sector
    ---------------------------------------------------------
        1  |  0:00.00 |  4:24.07 |         0    |    19806
        2  |  4:24.07 |  3:08.25 |     19807    |    33931
        3  |  7:32.32 |  3:27.25 |     33932    |    49481
        4  | 10:59.57 |  3:06.04 |     49482    |    63435
        5  | 14:05.61 |  3:27.06 |     63436    |    78966
        6  | 17:32.67 |  2:50.21 |     78967    |    91737
        7  | 20:23.13 |  2:54.01 |     91738    |   104788
        8  | 23:17.14 |  2:44.47 |    104789    |   117135
        9  | 26:01.61 |  3:18.66 |    117136    |   132051
       10  | 29:20.52 |  3:18.69 |    132052    |   146970
       11  | 32:39.46 |  3:03.57 |    146971    |   160752
       12  | 35:43.28 |  3:59.32 |    160753    |   178709
       13  | 39:42.60 |  4:43.56 |    178710    |   199990
       14  | 44:26.41 |  3:03.60 |    199991    |   213775
       15  | 47:30.26 |  2:35.39 |    213776    |   225439
       16  | 50:05.65 |  2:53.60 |    225440    |   238474
       17  | 52:59.50 |  3:44.58 |    238475    |   255332
       18  | 56:44.33 |  3:57.30 |    255333    |   273137
Track  1
     Filename F:\EACRiPS\Future-DS2-2015-FLAC\01 Thought It Was A Drought.wav
     Pre-gap length  0:00:02.00
     Peak level 100.0 %
     Extraction speed 2.1 X
     Track quality 100.0 %
     Test CRC 4CFCFA86
     Copy CRC 4CFCFA86
     Track not present in AccurateRip database
     Copy OK
Track  2
     Filename F:\EACRiPS\Future-DS2-2015-FLAC\02 I Serve The Base.wav
     Peak level 99.9 %
     Extraction speed 1.2 X
     Track quality 100.0 %
     Test CRC 8A86C709
     Copy CRC 8A86C709
     Track not present in AccurateRip database
     Copy OK
Track  3
     Filename F:\EACRiPS\Future-DS2-2015-FLAC\03 Where Ya At (ft Drake).wav
     Peak level 100.0 %
     Extraction speed 1.3 X
     Track quality 100.0 %
     Test CRC CFF252BB
     Copy CRC CFF252BB
     Track not present in AccurateRip database
     Copy OK
Track  4
     Filename F:\EACRiPS\Future-DS2-2015-FLAC\04 Groupies.wav
     Peak level 100.0 %
     Extraction speed 1.4 X
     Track quality 100.0 %
     Test CRC 37968017
     Copy CRC 37968017
     Track not present in AccurateRip database
     Copy OK
Track  5
     Filename F:\EACRiPS\Future-DS2-2015-FLAC\05 Lil One.wav
     Peak level 100.0 %
     Extraction speed 1.5 X
     Track quality 100.0 %
     Test CRC 0556CD7E
     Copy CRC 0556CD7E
     Track not present in AccurateRip database
     Copy OK
Track  6
     Filename F:\EACRiPS\Future-DS2-2015-FLAC\06 Stick Talk.wav
     Peak level 97.3 %
     Extraction speed 1.2 X
     Track quality 99.9 %
     Test CRC A2A54E0D
     Copy CRC A2A54E0D
     Track not present in AccurateRip database
     Copy OK
Track  7
     Filename F:\EACRiPS\Future-DS2-2015-FLAC\07 Freak Hoe.wav
     Peak level 100.0 %
     Extraction speed 1.6 X
     Track quality 100.0 %
     Test CRC 967E23B7
     Copy CRC 967E23B7
     Track not present in AccurateRip database
     Copy OK
Track  8
     Filename F:\EACRiPS\Future-DS2-2015-FLAC\08 Rotation.wav
     Peak level 99.9 %
     Extraction speed 1.6 X
     Track quality 100.0 %
     Test CRC 4F954A6A
     Copy CRC 4F954A6A
     Track not present in AccurateRip database
     Copy OK
Track  9
     Filename F:\EACRiPS\Future-DS2-2015-FLAC\09 Slave Master.wav
     Peak level 100.0 %
     Extraction speed 1.5 X
     Track quality 99.9 %
     Test CRC 15F0A372
     Copy CRC 15F0A372
     Track not present in AccurateRip database
     Copy OK
Track 10
     Filename F:\EACRiPS\Future-DS2-2015-FLAC\10 Blow A Bag.wav
     Pre-gap length  0:00:00.04
     Peak level 100.0 %
     Extraction speed 1.8 X
     Track quality 100.0 %
     Test CRC 411C6751
     Copy CRC 411C6751
     Track not present in AccurateRip database
     Copy OK
Track 11
     Filename F:\EACRiPS\Future-DS2-2015-FLAC\11 Colossal.wav
     Peak level 100.0 %
     Extraction speed 1.8 X
     Track quality 100.0 %
     Test CRC E9CB9366
     Copy CRC E9CB9366
     Track not present in AccurateRip database
     Copy OK
Track 12
     Filename F:\EACRiPS\Future-DS2-2015-FLAC\12 Rich $ex.wav
     Peak level 99.9 %
     Extraction speed 2.0 X
     Track quality 100.0 %
     Test CRC B52CBB07
     Copy CRC B52CBB07
     Track not present in AccurateRip database
     Copy OK
Track 13
     Filename F:\EACRiPS\Future-DS2-2015-FLAC\13 Blood On The Money.wav
     Peak level 93.8 %
     Extraction speed 2.1 X
     Track quality 100.0 %
     Test CRC ED884FC0
     Copy CRC ED884FC0
     Track not present in AccurateRip database
     Copy OK
Track 14
     Filename F:\EACRiPS\Future-DS2-2015-FLAC\14 Trap Niggas.wav
     Peak level 100.0 %
     Extraction speed 2.0 X
     Track quality 100.0 %
     Test CRC D5062482
     Copy CRC D5062482
     Track not present in AccurateRip database
     Copy OK
Track 15
     Filename F:\EACRiPS\Future-DS2-2015-FLAC\15 The Percocet & Stripper Joint.wav
     Peak level 89.9 %
     Extraction speed 2.0 X
     Track quality 100.0 %
     Test CRC 911E69E5
     Copy CRC 911E69E5
     Track not present in AccurateRip database
     Copy OK
Track 16
     Filename F:\EACRiPS\Future-DS2-2015-FLAC\16 Real sisters.wav
     Peak level 100.0 %
     Extraction speed 2.1 X
     Track quality 100.0 %
     Test CRC 6B788D29
     Copy CRC 6B788D29
     Track not present in AccurateRip database
     Copy OK
Track 17
     Filename F:\EACRiPS\Future-DS2-2015-FLAC\17 Kno The Meaning.wav
     Peak level 99.9 %
     Extraction speed 1.9 X
     Track quality 99.9 %
     Test CRC 8E653FCB
     Copy CRC 8E653FCB
     Track not present in AccurateRip database
     Copy OK
Track 18
     Filename F:\EACRiPS\Future-DS2-2015-FLAC\18 Fuck Up Some Commas.wav
     Peak level 100.0 %
     Extraction speed 2.0 X
     Track quality 99.9 %
     Test CRC 21AD6D34
     Copy CRC 21AD6D34
     Track not present in AccurateRip database
     Copy OK
None of the tracks are present in the AccurateRip database
No errors occurred
End of status report
==== Log checksum ABF7C886F00925408571AAD1EF85BCD231EDB5ED7FDA730D800119DEB9101D15 ====

=========================
百度下载(音乐共享精神)
游客,如果您要查看本帖隐藏内容请回复
来自群组: 欧美流行



上一篇:(应求)另类嘻哈: Flipsyde《We The People》(Re-Issue)2006/FLAC/BD
下一篇:Beyoncé《Live In Atlantic City》/FLAC/Hi-Res
关于链接失效的说明(度盘+115盘+快传 好友分享的说明)
http://www.cdbao.net/thread-117499-1-1.html     
紧急通告:115,快传等网盘取消了分享功能礼包码链接全部失效
http://www.cdbao.net/thread-122759-1-1.html

3083

主题

4258

帖子

55万

积分

音乐主神

Rank: 10Rank: 10Rank: 10

积分
553397

社区QQ达人精华帖达人分享勋章灌水勋章

发表于 2016-3-2 17:34:42 | 显示全部楼层
封面做的挺有点儿意思,但是歌没听过  是说唱嘛?

0

主题

20

帖子

81

积分

新人会员,请认真回复,若恶意回复,直接封号

Rank: 1

积分
81

社区QQ达人

发表于 2016-3-11 19:52:24 | 显示全部楼层
爱嘻哈,爱音乐,喜欢这样的音乐哈,谢谢楼主

0

主题

16

帖子

86

积分

新人会员,请认真回复,若恶意回复,直接封号

Rank: 1

积分
86
发表于 2016-3-16 03:47:59 | 显示全部楼层
这种音乐很少听,看起来能不错,下来听听,感谢

1

主题

268

帖子

432

积分

乐坛新星

Rank: 2

积分
432
发表于 2016-3-17 11:03:36 | 显示全部楼层
没有试听的地方啊,不过很好奇,是什么样音乐,谢谢楼主分享
 成长值: 2500

1

主题

110

帖子

537

积分

VIP3

Rank: 6Rank: 6

积分
537

社区QQ达人

发表于 2016-4-10 01:33:19 | 显示全部楼层
相当正的嘻哈,话说这样的专辑都会在我的硬盘里保存

6

主题

193

帖子

1226

积分

职业歌手

Rank: 3Rank: 3

积分
1226
发表于 2016-4-22 22:48:15 | 显示全部楼层
没试听 希望好听 谢谢分享  永远支持~!

1

主题

4235

帖子

4437

积分

人气天王

Rank: 5Rank: 5

积分
4437

社区QQ达人

发表于 2016-8-7 19:46:48 | 显示全部楼层
一直很喜欢的风格,这个必须要听一下,支持了,大赞,谢谢楼主
integral

3

主题

1125

帖子

1059

积分

职业歌手

Rank: 3Rank: 3

积分
1059
发表于 2016-9-29 00:46:42 | 显示全部楼层
谢谢楼主分享  谢谢!!!!!!!!!!!!!!
您需要登录后才可以回帖 登录 | 注册

本版积分规则

快速回复 返回顶部 返回列表