查看: 1098|回复: 33

(应求)VA《Now That’s What I Call Music!Vol.55》2015/FLAC/BD

[复制链接]
 成长值: 19590

6486

主题

1万

帖子

8万

积分

音乐掌门人

Rank: 20Rank: 20Rank: 20Rank: 20Rank: 20

积分
83920

名人勋章社区QQ达人分享勋章精华帖达人灌水勋章

发表于 2016-2-21 13:24:57 | 显示全部楼层 |阅读模式

注册会员,获得无损资源下载地址,享受高品质音乐。

您需要 登录 才可以下载或查看,没有帐号?注册

x
folder.jpg

Now That’s What I Call Music!, Vol. 55

Жанр: Pop, Dance
Носитель: CD
Страна-производитель диска (релиза): US
Год издания: 2015
Аудиокодек: FLAC (*.flac)
Тип рипа: tracks+.cue
Битрейт аудио: lossless
Продолжительность: 01:15:25

01. Ellie Goulding - Love Me Like You Do [4:09]

02. Tove Lo - Talking Body [3:55]
03. Jason Derulo - Want To Want Me [3:25]
04. Fifth Harmony feat. Kid Ink - Worth It [3:43]
05. David Guetta feat. Nicki Minaj, Bebe Rexha & Afrojack - Hey Mama [3:11]
06. OMI - Cheerleader [3:01]
07. Major Lazer & DJ Snake feat. MØ - Lean On [2:56]
08. Skrillex & Diplo feat. Justin Bieber - Where Are U Now [4:04]
09. Pitbull feat. Chris Brown - Fun [3:22]
10. DJ Snake & AlunaGeorge - You Know You Like It [4:05]
11. Nick Jonas - Chains [3:20]
12. Maroon 5 - This Summer's Gonna Hurt Like A Mother... [3:43]
13. Andy Grammer - Honey, I'm Good [3:18]
14. Taylor Swift - Style [3:49]
15. Ed Sheeran - Thinking Out Loud [4:37]
16. Little Big Town - Girl Crush [3:16]
17. Conrad Sewell - Hold Me Up [3:24]
18. Clairity - Scarecrow [3:41]
19. Jidenna feat. Roman GianArthur - Classic Man [3:44]
20. All Time Low - Something's Gotta Give [3:07]
21. Smallpools - Dreaming [3:35]

Exact Audio Copy V1.0 beta 3 from 29. August 2011
EAC extraction logfile from 10. August 2015, 0:17
Various Artists / Now That's What I Call Music! 55
Used drive  : hp      DVD RAM UJ8C2   Adapter: 0  ID: 0
Read mode               : Secure
Utilize accurate stream : Yes
Defeat audio cache      : Yes
Make use of C2 pointers : No
Read offset correction                      : 103
Overread into Lead-In and Lead-Out          : No
Fill up missing offset samples with silence : Yes
Delete leading and trailing silent blocks   : No
Null samples used in CRC calculations       : Yes
Used interface                              : Native Win32 interface for Win NT & 2000
Gap handling                                : Appended to previous track
Used output format              : User Defined Encoder
Selected bitrate                : 1024 kBit/s
Quality                         : High
Add ID3 tag                     : No
Command line compressor         : C:\Program Files (x86)\Exact Audio Copy\Flac\flac.exe
Additional command line options : -8 -V -T "ARTIST=%artist%" -T "TITLE=%title%" -T "ALBUM=%albumtitle%" -T "DATE=%year%" -T "TRACKNUMBER=%tracknr%" -T "GENRE=%genre%" -T "PERFORMER=%albuminterpret%" -T "COMPOSER=%composer%" %haslyrics%--tag-from-file=LYRICS="%lyricsfile%"%haslyrics% -T "ALBUMARTIST=%albumartist%" -T "DISCNUMBER=%cdnumber%" -T "TOTALDISCS=%totalcds%" -T "TOTALTRACKS=%numtracks%" -T "COMMENT=%comment%" %source% -o %dest%
TOC of the extracted CD
     Track |   Start  |  Length  | Start sector | End sector
    ---------------------------------------------------------
        1  |  0:00.00 |  4:08.65 |         0    |    18664
        2  |  4:08.65 |  3:55.35 |     18665    |    36324
        3  |  8:04.25 |  3:25.31 |     36325    |    51730
        4  | 11:29.56 |  3:42.45 |     51731    |    68425
        5  | 15:12.26 |  3:11.22 |     68426    |    82772
        6  | 18:23.48 |  3:00.49 |     82773    |    96321
        7  | 21:24.22 |  2:55.38 |     96322    |   109484
        8  | 24:19.60 |  4:03.59 |    109485    |   127768
        9  | 28:23.44 |  3:21.54 |    127769    |   142897
       10  | 31:45.23 |  4:04.56 |    142898    |   161253
       11  | 35:50.04 |  3:20.37 |    161254    |   176290
       12  | 39:10.41 |  3:43.00 |    176291    |   193015
       13  | 42:53.41 |  3:18.07 |    193016    |   207872
       14  | 46:11.48 |  3:49.08 |    207873    |   225055
       15  | 50:00.56 |  4:37.31 |    225056    |   245861
       16  | 54:38.12 |  3:16.29 |    245862    |   260590
       17  | 57:54.41 |  3:24.07 |    260591    |   275897
       18  | 61:18.48 |  3:40.63 |    275898    |   292460
       19  | 64:59.36 |  3:43.41 |    292461    |   309226
       20  | 68:43.02 |  3:07.06 |    309227    |   323257
       21  | 71:50.08 |  3:35.11 |    323258    |   339393
Track  1
     Filename C:\what.cd Uploads\Various Artists - Now That's What I Call Music!, Vol. 55\01 - Ellie Goulding - Love Me Like You Do.wav
     Pre-gap length  0:00:02.00
     Peak level 98.4 %
     Extraction speed 2.5 X
     Track quality 100.0 %
     Test CRC 3A27D5F7
     Copy CRC 3A27D5F7
     Track not present in AccurateRip database
     Copy OK
Track  2
     Filename C:\what.cd Uploads\Various Artists - Now That's What I Call Music!, Vol. 55\02 - Tove Lo - Talking Body.wav
     Peak level 98.7 %
     Extraction speed 2.7 X
     Track quality 100.0 %
     Test CRC 223F8190
     Copy CRC 223F8190
     Track not present in AccurateRip database
     Copy OK
Track  3
     Filename C:\what.cd Uploads\Various Artists - Now That's What I Call Music!, Vol. 55\03 - Jason Derulo - Want To Want Me.wav
     Peak level 99.8 %
     Extraction speed 2.9 X
     Track quality 100.0 %
     Test CRC 80711F58
     Copy CRC 80711F58
     Track not present in AccurateRip database
     Copy OK
Track  4
     Filename C:\what.cd Uploads\Various Artists - Now That's What I Call Music!, Vol. 55\04 - Fifth Harmony feat. Kid Ink - Worth It.wav
     Peak level 99.8 %
     Extraction speed 3.1 X
     Track quality 100.0 %
     Test CRC C7420948
     Copy CRC C7420948
     Track not present in AccurateRip database
     Copy OK
Track  5
     Filename C:\what.cd Uploads\Various Artists - Now That's What I Call Music!, Vol. 55\05 - David Guetta feat. Nicki Minaj, Bebe Rexha & Afrojack - Hey Mama.wav
     Peak level 99.9 %
     Extraction speed 3.2 X
     Track quality 100.0 %
     Test CRC CD46CF93
     Copy CRC CD46CF93
     Track not present in AccurateRip database
     Copy OK
Track  6
     Filename C:\what.cd Uploads\Various Artists - Now That's What I Call Music!, Vol. 55\06 - OMI - Cheerleader.wav
     Peak level 96.6 %
     Extraction speed 3.3 X
     Track quality 100.0 %
     Test CRC 9872B53D
     Copy CRC 9872B53D
     Track not present in AccurateRip database
     Copy OK
Track  7
     Filename C:\what.cd Uploads\Various Artists - Now That's What I Call Music!, Vol. 55\07 - Major Lazer w,M0 & DJ Snake - Lean On.wav
     Peak level 96.2 %
     Extraction speed 3.3 X
     Track quality 100.0 %
     Test CRC 7AB809E4
     Copy CRC 7AB809E4
     Track not present in AccurateRip database
     Copy OK
Track  8
     Filename C:\what.cd Uploads\Various Artists - Now That's What I Call Music!, Vol. 55\08 - Skrillex & Diplo w,Justin Bieber - Where Are U Now.wav
     Peak level 99.8 %
     Extraction speed 3.7 X
     Track quality 100.0 %
     Test CRC 2FB30000
     Copy CRC 2FB30000
     Track not present in AccurateRip database
     Copy OK
Track  9
     Filename C:\what.cd Uploads\Various Artists - Now That's What I Call Music!, Vol. 55\09 - Pitbull feat. Chris Brown - Fun.wav
     Peak level 99.4 %
     Extraction speed 3.7 X
     Track quality 100.0 %
     Test CRC F1FFBC6B
     Copy CRC F1FFBC6B
     Track not present in AccurateRip database
     Copy OK
Track 10
     Filename C:\what.cd Uploads\Various Artists - Now That's What I Call Music!, Vol. 55\10 - DJ Snake & AlunaGeorge - You Know You Like It.wav
     Peak level 99.8 %
     Extraction speed 4.0 X
     Track quality 100.0 %
     Test CRC CE676EDD
     Copy CRC CE676EDD
     Track not present in AccurateRip database
     Copy OK
Track 11
     Filename C:\what.cd Uploads\Various Artists - Now That's What I Call Music!, Vol. 55\11 - Nick Jonas - Chains.wav
     Peak level 99.7 %
     Extraction speed 2.8 X
     Track quality 99.9 %
     Test CRC 38030435
     Copy CRC 38030435
     Track not present in AccurateRip database
     Copy OK
Track 12
     Filename C:\what.cd Uploads\Various Artists - Now That's What I Call Music!, Vol. 55\12 - Maroon 5 - This Summer's Gonna Hurt Like A Mother....wav
     Peak level 99.7 %
     Extraction speed 4.1 X
     Track quality 100.0 %
     Test CRC 2D945B48
     Copy CRC 2D945B48
     Track not present in AccurateRip database
     Copy OK
Track 13
     Filename C:\what.cd Uploads\Various Artists - Now That's What I Call Music!, Vol. 55\13 - Andy Grammer - Honey, I'm Good.wav
     Peak level 97.9 %
     Extraction speed 4.2 X
     Track quality 100.0 %
     Test CRC 048C20BF
     Copy CRC 048C20BF
     Track not present in AccurateRip database
     Copy OK
Track 14
     Filename C:\what.cd Uploads\Various Artists - Now That's What I Call Music!, Vol. 55\14 - Taylor Swift - Style.wav
     Peak level 99.7 %
     Extraction speed 4.4 X
     Track quality 100.0 %
     Test CRC 28EB3525
     Copy CRC 28EB3525
     Track not present in AccurateRip database
     Copy OK
Track 15
     Filename C:\what.cd Uploads\Various Artists - Now That's What I Call Music!, Vol. 55\15 - Ed Sheeran - Thinking Out Loud.wav
     Peak level 97.7 %
     Extraction speed 4.7 X
     Track quality 100.0 %
     Test CRC E5659F7D
     Copy CRC E5659F7D
     Track not present in AccurateRip database
     Copy OK
Track 16
     Filename C:\what.cd Uploads\Various Artists - Now That's What I Call Music!, Vol. 55\16 - Little Big Town - Girl Crush.wav
     Peak level 99.4 %
     Extraction speed 4.5 X
     Track quality 100.0 %
     Test CRC E34AC325
     Copy CRC E34AC325
     Track not present in AccurateRip database
     Copy OK
Track 17
     Filename C:\what.cd Uploads\Various Artists - Now That's What I Call Music!, Vol. 55\17 - Conrad Sewell - Hold Me Up.wav
     Pre-gap length  0:00:03.06
     Peak level 98.8 %
     Extraction speed 4.7 X
     Track quality 100.0 %
     Test CRC 06B7FBA0
     Copy CRC 06B7FBA0
     Track not present in AccurateRip database
     Copy OK
Track 18
     Filename C:\what.cd Uploads\Various Artists - Now That's What I Call Music!, Vol. 55\18 - Clairity - Scarecrow.wav
     Peak level 99.8 %
     Extraction speed 4.8 X
     Track quality 100.0 %
     Test CRC D50AE458
     Copy CRC D50AE458
     Track not present in AccurateRip database
     Copy OK
Track 19
     Filename C:\what.cd Uploads\Various Artists - Now That's What I Call Music!, Vol. 55\19 - Jidenna feat. Roman GianArthur - Classic Man.wav
     Peak level 99.8 %
     Extraction speed 4.9 X
     Track quality 100.0 %
     Test CRC 36EE7A1F
     Copy CRC 36EE7A1F
     Track not present in AccurateRip database
     Copy OK
Track 20
     Filename C:\what.cd Uploads\Various Artists - Now That's What I Call Music!, Vol. 55\20 - All Time Low - Something's Gotta Give.wav
     Peak level 99.8 %
     Extraction speed 4.8 X
     Track quality 100.0 %
     Test CRC CCDF8467
     Copy CRC CCDF8467
     Track not present in AccurateRip database
     Copy OK
Track 21
     Filename C:\what.cd Uploads\Various Artists - Now That's What I Call Music!, Vol. 55\21 - Smallpools - Dreaming.wav
     Peak level 99.8 %
     Extraction speed 3.6 X
     Track quality 99.9 %
     Test CRC D4EFD184
     Copy CRC D4EFD184
     Track not present in AccurateRip database
     Copy OK
None of the tracks are present in the AccurateRip database
No errors occurred
End of status report
---- CUETools DB Plugin V2.1.3
[CTDB TOCID: wlpc8mMctXEIPaN5lD_iSmKpTVM-] found, Submit result: wlpc8mMctXEIPaN5lD_iSmKpTVM- has been confirmed
[ffcbef89] (4/4) Accurately ripped
==== Log checksum 72AAD4ABC5F4A5673DDD875C0FFCE16078108BCB715551729DC871D46AFF113E ====

=========================
百度下载(音乐共享精神):
游客,如果您要查看本帖隐藏内容请回复
来自群组: 欧美流行



上一篇:(应求)暗潮迷幻氛围流行:Chandeen《6CD》FLAC/度盘/1.86G
下一篇:VA《Bravo Hits 92》2CD/2016/FLAC/BD
关于链接失效的说明(度盘+115盘+快传 好友分享的说明)
http://www.cdbao.net/thread-117499-1-1.html     
紧急通告:115,快传等网盘取消了分享功能礼包码链接全部失效
http://www.cdbao.net/thread-122759-1-1.html

12

主题

1610

帖子

4815

积分

人气天王

Rank: 5Rank: 5

积分
4815

社区QQ达人

发表于 2016-2-21 15:10:42 | 显示全部楼层
怎么我这个的版本是2CD42首歌的

0

主题

237

帖子

574

积分

职业歌手

Rank: 3Rank: 3

积分
574

社区QQ达人

发表于 2016-2-21 18:26:38 | 显示全部楼层
谢谢分享资源,回复支持一下。

0

主题

580

帖子

716

积分

职业歌手

Rank: 3Rank: 3

积分
716
发表于 2016-2-21 21:53:28 | 显示全部楼层
这个系列一直很喜欢,谢谢楼主分享了!

0

主题

79

帖子

192

积分

乐坛新星

Rank: 2

积分
192

社区QQ达人

发表于 2016-2-26 08:29:58 | 显示全部楼层
好久没听NOW系了,听听。感谢楼主分享资源!

0

主题

1268

帖子

1273

积分

职业歌手

Rank: 3Rank: 3

积分
1273
发表于 2016-2-26 20:27:47 | 显示全部楼层
不错喔,喜欢喔,哈哈!谢谢提供资源咯,ok~ 谢谢!

0

主题

113

帖子

19

积分

新人会员,请认真回复,若恶意回复,直接封号

Rank: 1

积分
19
发表于 2016-3-1 14:44:01 | 显示全部楼层
(应求)VA《Now That’s What I Call Music!Vol.55》2015/FLAC/BD
 成长值: 830

0

主题

72

帖子

264

积分

VIP2

Rank: 5Rank: 5

积分
264
发表于 2016-3-5 21:56:34 | 显示全部楼层
好音乐必须共享
这个系列一直都还不错

1

主题

289

帖子

365

积分

乐坛新星

Rank: 2

积分
365
发表于 2016-3-7 09:58:49 | 显示全部楼层
这个系列一直很喜欢,谢谢楼主分享

1

主题

48

帖子

84

积分

新人会员,请认真回复,若恶意回复,直接封号

Rank: 1

积分
84

社区QQ达人

发表于 2016-3-8 11:50:38 | 显示全部楼层
下来听听感谢楼主无私奉献谢谢分享

0

主题

181

帖子

237

积分

乐坛新星

Rank: 2

积分
237

社区QQ达人

发表于 2016-3-14 17:11:26 | 显示全部楼层
now系列一直很受我这种没多少时间听一堆专辑的人的欢迎,谢谢分享

0

主题

27

帖子

97

积分

新人会员,请认真回复,若恶意回复,直接封号

Rank: 1

积分
97
发表于 2016-3-17 14:17:11 | 显示全部楼层
这是肯定喜欢的   谢谢楼主

0

主题

68

帖子

161

积分

乐坛新星

Rank: 2

积分
161
发表于 2016-3-18 11:10:27 | 显示全部楼层
非常好的合辑 可以说是首首经典

2

主题

199

帖子

333

积分

乐坛新星

Rank: 2

积分
333

社区QQ达人

发表于 2016-3-19 11:42:12 | 显示全部楼层
这张合集超级强大,每一首都是经典

1

主题

34

帖子

72

积分

新人会员,请认真回复,若恶意回复,直接封号

Rank: 1

积分
72

社区QQ达人

发表于 2016-3-24 15:26:01 | 显示全部楼层
好东西,感谢大神无锡分享,找了好久才找到,再次感谢楼主
您需要登录后才可以回帖 登录 | 注册

本版积分规则

快速回复 返回顶部 返回列表