查看: 1768|回复: 63

VA《Now That's What I Call Music! 91》2CD/2015/FLAC/BD+KC+115

[复制链接] [已阅至49楼]
 成长值: 19590

6487

主题

1万

帖子

8万

积分

音乐掌门人

Rank: 20Rank: 20Rank: 20Rank: 20Rank: 20

积分
83928

名人勋章社区QQ达人分享勋章精华帖达人灌水勋章

发表于 2015-11-26 11:24:06 | 显示全部楼层 |阅读模式

注册会员,获得无损资源下载地址,享受高品质音乐。

您需要 登录 才可以下载或查看,没有帐号?注册

x
91.jpg

Various Artists - Now That's What I Call Music! 91 (2CD)

Жанр: Pop
Носитель: CD
Год издания: 2015
Издатель (лейбл): Now
Аудиокодек: FLAC (*.flac)
Тип рипа: tracks+.cue
Битрейт аудио: lossless
Продолжительность: 02:31:44

Треклист:
CD 1 [01:17:50]
01. Ellie Goulding - Love Me Like You Do (From 'Fifty Shades Of Grey') [4:01]

02. Wiz Khalifa Featuring Charlie Puth - See You Again (From 'Furious 7') [3:50]

03. OMI - Cheerleader (Felix Jaehn Remix Radio Edit) [3:02]
04. Jason Derulo - Want To Want Me [3:27]
05. Little Mix - Black Magic [3:33]
06. Tinie Tempah Featuring Jess Glynne - Not Letting Go [3:50]
07. Major Lazer & DJ Snake Featuring M0 - Lean On [2:57]
08. Years & Years - Shine [3:12]
09. Aston Merrygold - Get Stupid [3:21]
10. Walk The Moon - Shut Up And Dance [3:19]
11. Rita Ora - Poison [3:23]
12. Natalie La Rose Featuring Jeremih - Somebody [3:10]
13. Nick Jonas - Jealous [3:43]
14. John Newman - Come And Get It [3:05]
15. Ed Sheeran & Rudimental - Bloodstream [5:10]
16. Carly Rae Jepsen - I Really Like You [3:25]
17. Meghan Trainor - Dear Future Husband [3:05]
18. Iggy Azalea Featuring Jennifer Hudson - Trouble [2:47]
19. Jessie J - Flashlight (From 'Pitch Perfect 2') [3:29]
20. James Bay - Let It Go [4:22]
21. Florence + The Machine - Ship To Wreck [3:55]
22. Hozier - Someone New [3:45]

CD 2 [01:13:54]
01. Lost Frequencies - Are You With Me [2:20]
02. Kygo Featuring Conrad Sewell - Firestone [3:25]
03. David Zowie - House Every Weekend [3:03]
04. David Guetta Featuring Nicki Minaj, Bebe Rexha & Afrojack - Hey Mama [3:13]
05. Flo Rida Featuring Robin Thicke - I Don't Like It, I Love It [3:45]
06. Galantis - Runaway (U & I) [3:47]
07. Skrillex & Diplo With Justin Bieber - Where Are U Now [4:11]
08. Krept & Konan Featuring Jeremih - Freak Of The Week [3:00]
09. Fifth Harmony Featuring Kid Ink - Worth It [3:44]
10. Deorro x Chris Brown - Five More Hours (Deorro x Chris Brown) [3:33]
11. LunchMoney Lewis - Bills [3:25]
12. Avicii - Waiting For Love [3:50]
13. Clean Bandit - Stronger [3:39]
14. Sam Feldt Featuring Kimberly Anne - Show Me Love [3:02]
15. Blonde Featuring Alex Newell - All Cried Out [2:51]
16. Kygo Featuring Parson James - Stole The Show [3:32]
17. Rudimental Featuring Foy Vance - Never Let You Go [3:56]
18. Pep & Rash - Rumors [2:52]
19. Dr. Kucho! & Gregor Salto Featuring Ane Brun - Can't Stop Playing (Makes Me High) (Oliver Heldens Vocal Edit) [2:38]
20. Lethal Bizzle Featuring Diztortion - Fester Skank [2:25]
21. Martin Garrix Featuring Usher - Don't Look Down [3:44]
22. Tove Lo - Talking Body [3:59]

Exact Audio Copy V1.0 beta 6 from 9. April 2015
EAC extraction logfile from 27. July 2015, 15:30
Various / Now That's What I Call Music 91 CD2
Used drive  : PIONEER BD-ROM  BDC-207D   Adapter: 1  ID: 0
Read mode               : Secure
Utilize accurate stream : Yes
Defeat audio cache      : Yes
Make use of C2 pointers : No
Read offset correction                      : 667
Overread into Lead-In and Lead-Out          : No
Fill up missing offset samples with silence : Yes
Delete leading and trailing silent blocks   : No
Null samples used in CRC calculations       : Yes
Used interface                              : Native Win32 interface for Win NT & 2000
Gap handling                                : Appended to previous track
Used output format              : User Defined Encoder
Selected bitrate                : 1024 kBit/s
Quality                         : High
Add ID3 tag                     : No
Command line compressor         : C:\Program Files (x86)\Exact Audio Copy\Flac\flac.exe
Additional command line options : -8 -V -T "ARTIST=%artist%" -T "TITLE=%title%" -T "ALBUM=%albumtitle%" -T "DATE=%year%" -T "TRACKNUMBER=%tracknr%" -T "GENRE=%genre%" -T "PERFORMER=%albuminterpret%" -T "COMPOSER=%composer%" %haslyrics%--tag-from-file=LYRICS="%lyricsfile%"%haslyrics% -T "ALBUMARTIST=%albumartist%" -T "DISCNUMBER=%cdnumber%" -T "TOTALDISCS=%totalcds%" -T "TOTALTRACKS=%numtracks%" -T "COMMENT=%comment%" %source% -o %dest%
TOC of the extracted CD
     Track |   Start  |  Length  | Start sector | End sector
    ---------------------------------------------------------
        1  |  0:00.00 |  2:20.00 |         0    |    10499
        2  |  2:20.00 |  3:24.73 |     10500    |    25872
        3  |  5:44.73 |  3:03.36 |     25873    |    39633
        4  |  8:48.34 |  3:13.18 |     39634    |    54126
        5  | 12:01.52 |  3:44.50 |     54127    |    70976
        6  | 15:46.27 |  3:47.10 |     70977    |    88011
        7  | 19:33.37 |  4:11.22 |     88012    |   106858
        8  | 23:44.59 |  2:59.44 |    106859    |   120327
        9  | 26:44.28 |  3:44.06 |    120328    |   137133
       10  | 30:28.34 |  3:32.73 |    137134    |   153106
       11  | 34:01.32 |  3:24.47 |    153107    |   168453
       12  | 37:26.04 |  3:49.56 |    168454    |   185684
       13  | 41:15.60 |  3:39.37 |    185685    |   202146
       14  | 44:55.22 |  3:01.61 |    202147    |   215782
       15  | 47:57.08 |  2:50.70 |    215783    |   228602
       16  | 50:48.03 |  3:31.53 |    228603    |   244480
       17  | 54:19.56 |  3:55.44 |    244481    |   262149
       18  | 58:15.25 |  2:52.23 |    262150    |   275072
       19  | 61:07.48 |  2:38.35 |    275073    |   286957
       20  | 63:46.08 |  2:25.35 |    286958    |   297867
       21  | 66:11.43 |  3:43.58 |    297868    |   314650
       22  | 69:55.26 |  3:59.03 |    314651    |   332578
Track  1
     Filename C:\Users\Mollins\Music\what.CD Shit\Various Artists - Now That's What I Call Music! 91 (2015) [FLAC]\CD2\01 - Lost Frequencies - Are You With Me.wav
     Pre-gap length  0:00:02.00
     Peak level 93.3 %
     Extraction speed 0.9 X
     Track quality 100.0 %
     Test CRC 572644E0
     Copy CRC 572644E0
     Track not present in AccurateRip database
     Copy OK
Track  2
     Filename C:\Users\Mollins\Music\what.CD Shit\Various Artists - Now That's What I Call Music! 91 (2015) [FLAC]\CD2\02 - Kygo Featuring Conrad Sewell - Firestone.wav
     Pre-gap length  0:00:00.76
     Peak level 85.3 %
     Extraction speed 1.0 X
     Track quality 100.0 %
     Test CRC 335954F6
     Copy CRC 335954F6
     Track not present in AccurateRip database
     Copy OK
Track  3
     Filename C:\Users\Mollins\Music\what.CD Shit\Various Artists - Now That's What I Call Music! 91 (2015) [FLAC]\CD2\03 - David Zowie - House Every Weekend.wav
     Pre-gap length  0:00:00.76
     Peak level 93.4 %
     Extraction speed 1.0 X
     Track quality 100.0 %
     Test CRC C5646967
     Copy CRC C5646967
     Track not present in AccurateRip database
     Copy OK
Track  4
     Filename C:\Users\Mollins\Music\what.CD Shit\Various Artists - Now That's What I Call Music! 91 (2015) [FLAC]\CD2\04 - David Guetta Featuring Nicki Minaj, Bebe Rexha & Afrojack - Hey Mama.wav
     Pre-gap length  0:00:00.76
     Peak level 89.1 %
     Extraction speed 1.0 X
     Track quality 100.0 %
     Test CRC 32BAB000
     Copy CRC 32BAB000
     Track not present in AccurateRip database
     Copy OK
Track  5
     Filename C:\Users\Mollins\Music\what.CD Shit\Various Artists - Now That's What I Call Music! 91 (2015) [FLAC]\CD2\05 - Flo Rida Featuring Robin Thicke - I Don't Like It, I Love It.wav
     Pre-gap length  0:00:00.76
     Peak level 94.4 %
     Extraction speed 1.0 X
     Track quality 100.0 %
     Test CRC A47873E3
     Copy CRC A47873E3
     Track not present in AccurateRip database
     Copy OK
Track  6
     Filename C:\Users\Mollins\Music\what.CD Shit\Various Artists - Now That's What I Call Music! 91 (2015) [FLAC]\CD2\06 - Galantis - Runaway (U & I).wav
     Pre-gap length  0:00:00.76
     Peak level 85.8 %
     Extraction speed 1.0 X
     Track quality 100.0 %
     Test CRC DF4B4E44
     Copy CRC DF4B4E44
     Track not present in AccurateRip database
     Copy OK
Track  7
     Filename C:\Users\Mollins\Music\what.CD Shit\Various Artists - Now That's What I Call Music! 91 (2015) [FLAC]\CD2\07 - Skrillex & Diplo With Justin Bieber - Where Are U Now.wav
     Pre-gap length  0:00:00.76
     Peak level 89.1 %
     Extraction speed 0.9 X
     Track quality 99.9 %
     Test CRC 3EEB5249
     Copy CRC 3EEB5249
     Track not present in AccurateRip database
     Copy OK
Track  8
     Filename C:\Users\Mollins\Music\what.CD Shit\Various Artists - Now That's What I Call Music! 91 (2015) [FLAC]\CD2\08 - Krept & Konan Featuring Jeremih - Freak Of The Week.wav
     Pre-gap length  0:00:00.76
     Peak level 98.9 %
     Extraction speed 0.8 X
     Track quality 99.9 %
     Test CRC F6E201AA
     Copy CRC F6E201AA
     Track not present in AccurateRip database
     Copy OK
Track  9
     Filename C:\Users\Mollins\Music\what.CD Shit\Various Artists - Now That's What I Call Music! 91 (2015) [FLAC]\CD2\09 - Fifth Harmony Featuring Kid Ink - Worth It.wav
     Pre-gap length  0:00:00.76
     Peak level 89.1 %
     Extraction speed 0.8 X
     Track quality 99.9 %
     Test CRC 567A880E
     Copy CRC 567A880E
     Track not present in AccurateRip database
     Copy OK
Track 10
     Filename C:\Users\Mollins\Music\what.CD Shit\Various Artists - Now That's What I Call Music! 91 (2015) [FLAC]\CD2\10 - Deorro x Chris Brown - Five More Hours (Deorro x Chris Brown).wav
     Pre-gap length  0:00:00.76
     Peak level 76.7 %
     Extraction speed 1.0 X
     Track quality 100.0 %
     Test CRC 7F5176D0
     Copy CRC 7F5176D0
     Track not present in AccurateRip database
     Copy OK
Track 11
     Filename C:\Users\Mollins\Music\what.CD Shit\Various Artists - Now That's What I Call Music! 91 (2015) [FLAC]\CD2\11 - LunchMoney Lewis - Bills.wav
     Pre-gap length  0:00:00.76
     Peak level 89.0 %
     Extraction speed 1.0 X
     Track quality 100.0 %
     Test CRC 6C3EE413
     Copy CRC 6C3EE413
     Track not present in AccurateRip database
     Copy OK
Track 12
     Filename C:\Users\Mollins\Music\what.CD Shit\Various Artists - Now That's What I Call Music! 91 (2015) [FLAC]\CD2\12 - Avicii - Waiting For Love.wav
     Pre-gap length  0:00:00.76
     Peak level 83.3 %
     Extraction speed 0.8 X
     Track quality 99.9 %
     Test CRC B8A80A58
     Copy CRC B8A80A58
     Track not present in AccurateRip database
     Copy OK
Track 13
     Filename C:\Users\Mollins\Music\what.CD Shit\Various Artists - Now That's What I Call Music! 91 (2015) [FLAC]\CD2\13 - Clean Bandit - Stronger.wav
     Pre-gap length  0:00:00.76
     Peak level 99.2 %
     Extraction speed 1.0 X
     Track quality 100.0 %
     Test CRC 365F0EBA
     Copy CRC 365F0EBA
     Track not present in AccurateRip database
     Copy OK
Track 14
     Filename C:\Users\Mollins\Music\what.CD Shit\Various Artists - Now That's What I Call Music! 91 (2015) [FLAC]\CD2\14 - Sam Feldt Featuring Kimberly Anne - Show Me Love.wav
     Pre-gap length  0:00:00.76
     Peak level 89.1 %
     Extraction speed 0.9 X
     Track quality 100.0 %
     Test CRC 2EEC8FDC
     Copy CRC 2EEC8FDC
     Track not present in AccurateRip database
     Copy OK
Track 15
     Filename C:\Users\Mollins\Music\what.CD Shit\Various Artists - Now That's What I Call Music! 91 (2015) [FLAC]\CD2\15 - Blonde Featuring Alex Newell - All Cried Out.wav
     Pre-gap length  0:00:00.76
     Peak level 98.8 %
     Extraction speed 0.9 X
     Track quality 100.0 %
     Test CRC CC69DF9E
     Copy CRC CC69DF9E
     Track not present in AccurateRip database
     Copy OK
Track 16
     Filename C:\Users\Mollins\Music\what.CD Shit\Various Artists - Now That's What I Call Music! 91 (2015) [FLAC]\CD2\16 - Kygo Featuring Parson James - Stole The Show.wav
     Pre-gap length  0:00:00.76
     Peak level 78.8 %
     Extraction speed 1.0 X
     Track quality 100.0 %
     Test CRC 6C46848E
     Copy CRC 6C46848E
     Track not present in AccurateRip database
     Copy OK
Track 17
     Filename C:\Users\Mollins\Music\what.CD Shit\Various Artists - Now That's What I Call Music! 91 (2015) [FLAC]\CD2\17 - Rudimental Featuring Foy Vance - Never Let You Go.wav
     Pre-gap length  0:00:00.76
     Peak level 99.1 %
     Extraction speed 1.0 X
     Track quality 100.0 %
     Test CRC BC2E4C67
     Copy CRC BC2E4C67
     Track not present in AccurateRip database
     Copy OK
Track 18
     Filename C:\Users\Mollins\Music\what.CD Shit\Various Artists - Now That's What I Call Music! 91 (2015) [FLAC]\CD2\18 - Pep & Rash - Rumors.wav
     Pre-gap length  0:00:00.77
     Peak level 84.0 %
     Extraction speed 0.8 X
     Track quality 99.9 %
     Test CRC 31D38347
     Copy CRC 31D38347
     Track not present in AccurateRip database
     Copy OK
Track 19
     Filename C:\Users\Mollins\Music\what.CD Shit\Various Artists - Now That's What I Call Music! 91 (2015) [FLAC]\CD2\19 - Dr. Kucho! & Gregor Salto Featuring Ane Brun - Can't Stop Playing (Makes Me High) (Oliver Heldens Vocal Edit).wav
     Pre-gap length  0:00:00.77
     Peak level 94.3 %
     Extraction speed 0.9 X
     Track quality 100.0 %
     Test CRC 59A3C05F
     Copy CRC 59A3C05F
     Track not present in AccurateRip database
     Copy OK
Track 20
     Filename C:\Users\Mollins\Music\what.CD Shit\Various Artists - Now That's What I Call Music! 91 (2015) [FLAC]\CD2\20 - Lethal Bizzle Featuring Diztortion - Fester Skank.wav
     Pre-gap length  0:00:00.76
     Peak level 87.5 %
     Extraction speed 0.9 X
     Track quality 100.0 %
     Test CRC FDA863F9
     Copy CRC FDA863F9
     Track not present in AccurateRip database
     Copy OK
Track 21
     Filename C:\Users\Mollins\Music\what.CD Shit\Various Artists - Now That's What I Call Music! 91 (2015) [FLAC]\CD2\21 - Martin Garrix Featuring Usher - Don't Look Down.wav
     Pre-gap length  0:00:00.76
     Peak level 96.5 %
     Extraction speed 0.8 X
     Track quality 99.9 %
     Test CRC DB3B2D5D
     Copy CRC DB3B2D5D
     Track not present in AccurateRip database
     Copy OK
Track 22
     Filename C:\Users\Mollins\Music\what.CD Shit\Various Artists - Now That's What I Call Music! 91 (2015) [FLAC]\CD2\22 - Tove Lo - Talking Body.wav
     Pre-gap length  0:00:00.76
     Peak level 100.0 %
     Extraction speed 0.8 X
     Track quality 99.9 %
     Test CRC EE2140DD
     Copy CRC EE2140DD
     Track not present in AccurateRip database
     Copy OK
None of the tracks are present in the AccurateRip database
No errors occurred
End of status report
---- CUETools DB Plugin V2.1.6
[CTDB TOCID: rHnvDRmMg6xVbi9FJgDIJqo2rK4-] found
Submit result: rHnvDRmMg6xVbi9FJgDIJqo2rK4- has been confirmed
Track | CTDB Status
  1   | (9/9) Accurately ripped
  2   | (9/9) Accurately ripped
  3   | (9/9) Accurately ripped
  4   | (9/9) Accurately ripped
  5   | (9/9) Accurately ripped
  6   | (9/9) Accurately ripped
  7   | (9/9) Accurately ripped
  8   | (9/9) Accurately ripped
  9   | (9/9) Accurately ripped
10   | (9/9) Accurately ripped
11   | (9/9) Accurately ripped
12   | (9/9) Accurately ripped
13   | (9/9) Accurately ripped
14   | (9/9) Accurately ripped
15   | (9/9) Accurately ripped
16   | (9/9) Accurately ripped
17   | (9/9) Accurately ripped
18   | (9/9) Accurately ripped
19   | (9/9) Accurately ripped
20   | (9/9) Accurately ripped
21   | (9/9) Accurately ripped
22   | (9/9) Accurately ripped
==== Log checksum E67401FDB8101F96B999DBFDBAFDE7FA5CF097C776307E4814E031D7318147B3 ====

===================
百度下载:
游客,如果您要查看本帖隐藏内容请回复


快传下载:
游客,如果您要查看本帖隐藏内容请回复


115下载:
游客,如果您要查看本帖隐藏内容请回复
来自群组: 欧美流行

点评

最终的金属仓库  发表于 2015-11-26 13:25



上一篇:VA《World Music Greatest Hits Vol.1&2》6CD/FLAC/整轨/百度
下一篇:原抓:老鹰乐队主唱唐亨利《Cass County》2015回归大作/FLAC/BD
关于链接失效的说明(度盘+115盘+快传 好友分享的说明)
http://www.cdbao.net/thread-117499-1-1.html     
紧急通告:115,快传等网盘取消了分享功能礼包码链接全部失效
http://www.cdbao.net/thread-122759-1-1.html

10

主题

227

帖子

3162

积分

当红偶像

Rank: 4

积分
3162

社区QQ达人

发表于 2015-11-26 11:44:50 | 显示全部楼层
好东西,谢谢了~抢个沙发{:7_192:}

0

主题

939

帖子

1866

积分

当红偶像

Rank: 4

积分
1866
发表于 2015-11-26 15:30:23 | 显示全部楼层
都是非常强劲非常动听的音乐!!!!

0

主题

552

帖子

801

积分

职业歌手

Rank: 3Rank: 3

积分
801

社区QQ达人

发表于 2015-11-26 15:53:16 | 显示全部楼层
及时收藏啦。。。感谢楼主无私分享。。。

0

主题

237

帖子

574

积分

职业歌手

Rank: 3Rank: 3

积分
574

社区QQ达人

发表于 2015-11-26 18:30:55 | 显示全部楼层
合集大咖。非常棒的东西,收了。

0

主题

1268

帖子

1273

积分

职业歌手

Rank: 3Rank: 3

积分
1273
发表于 2015-11-26 19:59:35 | 显示全部楼层
{:7_191:}不错~喜欢精选的歌曲!必须支持,太棒了

0

主题

1750

帖子

2507

积分

当红偶像

Rank: 4

积分
2507
发表于 2015-11-27 11:11:26 | 显示全部楼层
谢谢楼主分享!又有新NOW可以欣赏啦……

0

主题

580

帖子

716

积分

职业歌手

Rank: 3Rank: 3

积分
716
发表于 2015-11-27 12:40:01 | 显示全部楼层
这个系列的碟都很好听,谢谢分享!

0

主题

20

帖子

121

积分

新人会员,请认真回复,若恶意回复,直接封号

Rank: 1

积分
121
发表于 2015-11-27 13:39:47 | 显示全部楼层
已经不能和以前的now系列相比了,想当年now1-4那是经典的不要不要的。。。。。。

评分

参与人数 1CD +20 收起 理由
最终之战 + 20 认真回帖,给予加分奖励

查看全部评分

0

主题

10

帖子

66

积分

新人会员,请认真回复,若恶意回复,直接封号

Rank: 1

积分
66

社区QQ达人

发表于 2015-11-28 11:35:44 | 显示全部楼层
很好听呀。先下载下来收藏。

12

主题

1610

帖子

4815

积分

人气天王

Rank: 5Rank: 5

积分
4815

社区QQ达人

发表于 2015-11-28 12:29:11 | 显示全部楼层
91都出来了,真的很快啊,之前的还却好多集怎么办?

评分

参与人数 1CD +20 收起 理由
最终之战 + 20 之前的,论坛都有

查看全部评分

0

主题

255

帖子

59

积分

新人会员,请认真回复,若恶意回复,直接封号

Rank: 1

积分
59
发表于 2015-11-28 13:14:56 | 显示全部楼层
极好的资源,谢谢分享…………

0

主题

32

帖子

-148

积分

恶意回复被扣没分了,积分增加方法见置顶帖

积分
-148
发表于 2015-11-28 14:41:25 | 显示全部楼层
哈哈哈哈哈哈哈哈哈哈哈哈哈哈哈哈哈哈哈哈哈哈哈哈哈哈

评分

参与人数 1CD -80 收起 理由
最终之战 -80 本站禁一切垃圾无意义回复,请修改以往恶意.

查看全部评分

0

主题

229

帖子

401

积分

乐坛新星

Rank: 2

积分
401

社区QQ达人

发表于 2015-11-28 14:49:26 | 显示全部楼层
太好了~~~有的下来听听啦~~~谢谢。

12

主题

1610

帖子

4815

积分

人气天王

Rank: 5Rank: 5

积分
4815

社区QQ达人

发表于 2015-11-28 14:57:08 | 显示全部楼层

我搜过了,都不一定全啊,我再补一个大包给大家下载,只是到1-76的,76以后的就要慢慢凑齐了
您需要登录后才可以回帖 登录 | 注册

本版积分规则

快速回复 返回顶部 返回列表