查看: 765|回复: 20

流行舞曲电子:VA《Island 15》2CD/2015/FLAC/BD+115

[复制链接] [已阅至13楼]
 成长值: 19620

6514

主题

1万

帖子

8万

积分

音乐掌门人

Rank: 20Rank: 20Rank: 20Rank: 20Rank: 20

积分
84207

名人勋章社区QQ达人分享勋章精华帖达人灌水勋章

发表于 2015-11-7 07:52:23 | 显示全部楼层 |阅读模式

注册会员,获得无损资源下载地址,享受高品质音乐。

您需要 登录 才可以下载或查看,没有帐号?注册

x
folder.jpg

Island 15 (2CD)

Жанр: Pop, Dance, Easy Listening, Electronic
Носитель: CD
Страна-производитель диска (релиза): GR
Год издания: 2015
Издатель (лейбл): Minos - EMI SA & Feelgood Records
Номер по каталогу: 060075363603 9
Аудиокодек: FLAC (*.flac)
Тип рипа: tracks+.cue
Битрейт аудио: lossless
Продолжительность: 01:56:32


CD 1 [00:50:48.747]
01. Ian Ikon feat Afrodite - The end of falling (3:16)

02. Echo Train - Fire (4:04)
03. Monsieur Minimal feat Lambrou's Children Choir - Stars (3:32)
04. Jamie Cullum feat Gregory Porter - Don't let me be misunderstood (2:50)
05. Kiesza - Sound of a Woman (AKA orange remix) (3:48)
06. Katerine Duska - Won't leave (3:25)
07. Aronchupa - I'm an albatraoz (2:47)
08. C:Real - Sacred love (3:42)
09. Hozier - Take me to Church (4:03)
10. Sia - Elastic heart (3:49)
11. Robbie Williams - Supreme (4:17)
12. Peter Embrechts & Tomas de Prince - Get into the groove (3:41)
13. Alexandra Kladi & Renos Charalabidis) - To magiko nisi (Hlias Katelanos Rework) (3:57)
14. Demis Roussos - Forever and ever (3:37)


CD 2 [01:05:43.880]
01. Fifth Harmony - Worth it (3:07)
02. Kendji Girac - Andalouse (2:50)
03. Dj Sava feat Hevito - Bailando (3:19)
04. Tiesto & Kshmr feat Vassy - Secrets (3:39)
05. Tony Succar , Jean Rodriguez - Smooth criminal (4:42)
06. Giorgio Moroder feat Kylie Minogue - Right here right now (3:32)
07. Idra Kayne - Don't stop the music (3:30)
08. Angelica Dusk feat. Playmen - Beautiful love (3:39)
09. Pink Noisy & Maria Antona - I want more (3:50)
10. Broiler feat.Ravvel - Wild eyes (Original mix) (4:17)
11. Dirty Vegas - Save a prayer (3:53)
12. Sam Smith - Lay me down (Tiësto remix) (4:18)
13. Dino Grand , Rony Iron - Touch me (All night long) (4:05)
14. Alesso feat. Roy English - Cool (3:20)
15. Playmen & Aiceen feat. Mia - Love song (Mahmut Orhan (2015 radio edit) (3:48)
16. REC - Esta Noche # BES (3:28)
17. Andreas Schooler feat. Klara Elias - Burlesque (3:03)
18. Living R, Dj Paris feat Mike Diamondz - Fallin (3:24)
Exact Audio Copy V1.0 beta 3 from 29. August 2011
EAC extraction logfile from 10. August 2015, 9:47
Various / Island 15 Cd2
Used drive  : TSSTcorpCDDVDW SH-224DB   Adapter: 0  ID: 0
Read mode               : Secure
Utilize accurate stream : Yes
Defeat audio cache      : Yes
Make use of C2 pointers : No
Read offset correction                      : 6
Overread into Lead-In and Lead-Out          : No
Fill up missing offset samples with silence : Yes
Delete leading and trailing silent blocks   : No
Null samples used in CRC calculations       : Yes
Used interface                              : Native Win32 interface for Win NT & 2000
Gap handling                                : Appended to previous track
Used output format              : User Defined Encoder
Selected bitrate                : 1024 kBit/s
Quality                         : High
Add ID3 tag                     : No
Command line compressor         : C:\Program Files (x86)\Exact Audio Copy\FLAC\FLAC.EXE
Additional command line options : -8 -V -T "ARTIST=%artist%" -T "TITLE=%title%" -T "ALBUM=%albumtitle%" -T "DATE=%year%" -T "TRACKNUMBER=%tracknr%" -T "GENRE=%genre%" -T "PERFORMER=%albuminterpret%" -T "COMPOSER=%composer%" %haslyrics%--tag-from-file=LYRICS="%lyricsfile%"%haslyrics% -T "ALBUMARTIST=%albumartist%" -T "DISCNUMBER=%cdnumber%" -T "TOTALDISCS=%totalcds%" -T "TOTALTRACKS=%numtracks%" -T "COMMENT=%comment%" %source% -o %dest%
TOC of the extracted CD
     Track |   Start  |  Length  | Start sector | End sector
    ---------------------------------------------------------
        1  |  0:00.00 |  3:07.16 |         0    |    14040
        2  |  3:07.16 |  2:49.49 |     14041    |    26764
        3  |  5:56.65 |  3:18.72 |     26765    |    41686
        4  |  9:15.62 |  3:39.04 |     41687    |    58115
        5  | 12:54.66 |  4:42.10 |     58116    |    79275
        6  | 17:37.01 |  3:31.64 |     79276    |    95164
        7  | 21:08.65 |  3:29.45 |     95165    |   110884
        8  | 24:38.35 |  3:39.26 |    110885    |   127335
        9  | 28:17.61 |  3:50.06 |    127336    |   144591
       10  | 32:07.67 |  4:17.24 |    144592    |   163890
       11  | 36:25.16 |  3:53.07 |    163891    |   181372
       12  | 40:18.23 |  4:17.62 |    181373    |   200709
       13  | 44:36.10 |  4:04.60 |    200710    |   219069
       14  | 48:40.70 |  3:19.74 |    219070    |   234068
       15  | 52:00.69 |  3:48.16 |    234069    |   251184
       16  | 55:49.10 |  3:28.37 |    251185    |   266821
       17  | 59:17.47 |  3:02.53 |    266822    |   280524
       18  | 62:20.25 |  3:23.41 |    280525    |   295790
Track  1
     Filename C:\Downloads\CD Ripped\01 - Worth it.wav
     Pre-gap length  0:00:02.00
     Peak level 96.6 %
     Extraction speed 1.4 X
     Track quality 99.9 %
     Test CRC 386CDD16
     Copy CRC 386CDD16
     Track not present in AccurateRip database
     Copy OK
Track  2
     Filename C:\Downloads\CD Ripped\02 - Andalouse.wav
     Pre-gap length  0:00:02.00
     Peak level 96.6 %
     Extraction speed 1.4 X
     Track quality 99.9 %
     Test CRC 4E957449
     Copy CRC 4E957449
     Track not present in AccurateRip database
     Copy OK
Track  3
     Filename C:\Downloads\CD Ripped\03 - Bailando.wav
     Pre-gap length  0:00:02.00
     Peak level 96.6 %
     Extraction speed 1.9 X
     Track quality 100.0 %
     Test CRC BF069A1D
     Copy CRC BF069A1D
     Track not present in AccurateRip database
     Copy OK
Track  4
     Filename C:\Downloads\CD Ripped\04 - Secrets.wav
     Pre-gap length  0:00:01.00
     Peak level 99.9 %
     Extraction speed 2.1 X
     Track quality 100.0 %
     Test CRC F5F13243
     Copy CRC F5F13243
     Track not present in AccurateRip database
     Copy OK
Track  5
     Filename C:\Downloads\CD Ripped\05 - Smooth criminal.wav
     Pre-gap length  0:00:02.00
     Peak level 99.9 %
     Extraction speed 2.3 X
     Track quality 100.0 %
     Test CRC A5031077
     Copy CRC A5031077
     Track not present in AccurateRip database
     Copy OK
Track  6
     Filename C:\Downloads\CD Ripped\06 - Right here right now.wav
     Pre-gap length  0:00:01.98
     Peak level 99.9 %
     Extraction speed 2.3 X
     Track quality 100.0 %
     Test CRC 6A00C858
     Copy CRC 6A00C858
     Track not present in AccurateRip database
     Copy OK
Track  7
     Filename C:\Downloads\CD Ripped\07 - Don't stop the music.wav
     Pre-gap length  0:00:02.00
     Peak level 100.0 %
     Extraction speed 2.4 X
     Track quality 100.0 %
     Test CRC D9B4CE19
     Copy CRC D9B4CE19
     Track not present in AccurateRip database
     Copy OK
Track  8
     Filename C:\Downloads\CD Ripped\08 - Beautiful love.wav
     Pre-gap length  0:00:02.00
     Peak level 96.7 %
     Extraction speed 2.6 X
     Track quality 100.0 %
     Test CRC 8F6A7584
     Copy CRC 8F6A7584
     Track not present in AccurateRip database
     Copy OK
Track  9
     Filename C:\Downloads\CD Ripped\09 - I want more.wav
     Pre-gap length  0:00:02.00
     Peak level 93.3 %
     Extraction speed 2.1 X
     Track quality 99.9 %
     Test CRC F944B2AF
     Copy CRC F944B2AF
     Track not present in AccurateRip database
     Copy OK
Track 10
     Filename C:\Downloads\CD Ripped\10 - Wild eyes (Original mix).wav
     Pre-gap length  0:00:02.00
     Peak level 97.4 %
     Extraction speed 2.3 X
     Track quality 99.9 %
     Test CRC DC97D906
     Copy CRC DC97D906
     Track not present in AccurateRip database
     Copy OK
Track 11
     Filename C:\Downloads\CD Ripped\11 - Save a prayer.wav
     Pre-gap length  0:00:02.00
     Peak level 98.8 %
     Extraction speed 2.9 X
     Track quality 100.0 %
     Test CRC A24C9A45
     Copy CRC A24C9A45
     Track not present in AccurateRip database
     Copy OK
Track 12
     Filename C:\Downloads\CD Ripped\12 - Lay me down (Tiësto remix).wav
     Pre-gap length  0:00:02.00
     Peak level 99.6 %
     Extraction speed 3.0 X
     Track quality 100.0 %
     Test CRC C5A82B9E
     Copy CRC C5A82B9E
     Track not present in AccurateRip database
     Copy OK
Track 13
     Filename C:\Downloads\CD Ripped\13 - Touch me (All night long).wav
     Pre-gap length  0:00:01.00
     Peak level 98.8 %
     Extraction speed 2.5 X
     Track quality 99.9 %
     Test CRC 06C2A551
     Copy CRC 65DEC287
     Track not present in AccurateRip database
     Copy OK
Track 14
     Filename C:\Downloads\CD Ripped\14 - Cool.wav
     Pre-gap length  0:00:02.00
     Peak level 93.3 %
     Extraction speed 3.1 X
     Track quality 100.0 %
     Test CRC 42867974
     Copy CRC 42867974
     Track not present in AccurateRip database
     Copy OK
Track 15
     Filename C:\Downloads\CD Ripped\15 - Love song (Mahmut Orhan (2015 radio edit).wav
     Pre-gap length  0:00:02.00
     Peak level 99.9 %
     Extraction speed 3.2 X
     Track quality 100.0 %
     Test CRC 17F4F5CA
     Copy CRC 17F4F5CA
     Track not present in AccurateRip database
     Copy OK
Track 16
     Filename C:\Downloads\CD Ripped\16 - Esta Noche # BES.wav
     Pre-gap length  0:00:02.00
     Peak level 100.0 %
     Extraction speed 2.5 X
     Track quality 99.9 %
     Test CRC 39978F11
     Copy CRC 39978F11
     Track not present in AccurateRip database
     Copy OK
Track 17
     Filename C:\Downloads\CD Ripped\17 - Burlesque.wav
     Pre-gap length  0:00:02.00
     Peak level 100.0 %
     Extraction speed 3.3 X
     Track quality 100.0 %
     Test CRC 93EA0331
     Copy CRC 93EA0331
     Track not present in AccurateRip database
     Copy OK
Track 18
     Filename C:\Downloads\CD Ripped\18 - Fallin.wav
     Pre-gap length  0:00:02.00
     Peak level 98.8 %
     Extraction speed 2.6 X
     Track quality 99.9 %
     Test CRC 90945424
     Copy CRC 90945424
     Track not present in AccurateRip database
     Copy OK
None of the tracks are present in the AccurateRip database
No errors occurred
End of status report
---- CUETools DB Plugin V2.1.3
[CTDB TOCID: 8bwappQUmJDBMMUqpAraWRFJi4w-] found, Submit result: insufficient quality
[3bf14adf] (1/1) Differs in 88 samples @47:13:11-47:13:12,50:42:10-50:42:11,50:42:45
You can use CUETools to repair this rip.
==== Log checksum E0679556DAD66FE7C381F58E25BE1DF75884A02CAAFD0AB0EBE19600BD5E52E8 ====

===================================
百度下载:
游客,如果您要查看本帖隐藏内容请回复

115下载:
游客,如果您要查看本帖隐藏内容请回复
来自群组: 欧美流行

点评

谢谢  发表于 2015-11-21 14:56



上一篇:法民谣独立流行创作女歌手:Yael Naim《Older》2015/FLAC/BD+115
下一篇:电子流行科技舞曲:Peaches《Rub》2015/FLAC/BD+115
关于链接失效的说明(度盘+115盘+快传 好友分享的说明)
http://www.cdbao.net/thread-117499-1-1.html     
紧急通告:115,快传等网盘取消了分享功能礼包码链接全部失效
http://www.cdbao.net/thread-122759-1-1.html

0

主题

869

帖子

1527

积分

当红偶像

Rank: 4

积分
1527
发表于 2015-11-7 11:16:03 | 显示全部楼层
非常棒!多谢分享精彩音乐!收藏!

0

主题

70

帖子

280

积分

乐坛新星

Rank: 2

积分
280

社区QQ达人

发表于 2015-11-8 19:30:39 | 显示全部楼层
谢谢分享啊,好像节奏感很好的额

1

主题

530

帖子

661

积分

职业歌手

Rank: 3Rank: 3

积分
661

社区QQ达人

发表于 2015-11-8 23:59:28 | 显示全部楼层
试听感觉不错 没得说 LZ辛苦了 感谢分享

0

主题

784

帖子

1620

积分

当红偶像

Rank: 4

积分
1620

社区QQ达人

发表于 2015-11-9 13:17:59 | 显示全部楼层
试听的这首歌很上口,也很耐听,但是好像不是舞曲吧。。。

0

主题

1268

帖子

1273

积分

职业歌手

Rank: 3Rank: 3

积分
1273
发表于 2015-11-10 13:43:34 | 显示全部楼层
{:7_191:}不错阿,精选歌曲我喜欢,哈哈{:7_200:}

0

主题

72

帖子

160

积分

乐坛新星

Rank: 2

积分
160
发表于 2015-11-15 18:02:18 | 显示全部楼层
期待好久,经典哦,谢谢楼主!!!

0

主题

189

帖子

223

积分

乐坛新星

Rank: 2

积分
223

社区QQ达人

发表于 2015-11-16 01:53:19 | 显示全部楼层
很好很喜欢的专辑好多啊!~~听都听不玩啊·
integral

0

主题

396

帖子

1017

积分

职业歌手

Rank: 3Rank: 3

积分
1017

社区QQ达人

QQ
发表于 2015-11-21 14:51:48 | 显示全部楼层
赶紧跟进收藏,不错的碟。我来收藏和仔细欣赏

0

主题

13

帖子

65

积分

新人会员,请认真回复,若恶意回复,直接封号

Rank: 1

积分
65
发表于 2015-11-24 22:42:03 | 显示全部楼层
谢谢楼主!!!感谢分享!!!

1

主题

219

帖子

267

积分

乐坛新星

Rank: 2

积分
267

社区QQ达人

发表于 2015-11-26 12:01:50 | 显示全部楼层
很好听的音乐,感谢分享。。。。。。。。。

1

主题

219

帖子

267

积分

乐坛新星

Rank: 2

积分
267

社区QQ达人

发表于 2015-11-26 12:10:38 | 显示全部楼层
很喜欢,很好听,很感谢。。。。。。。。。。。。。。。。。。

0

主题

175

帖子

241

积分

乐坛新星

Rank: 2

积分
241
发表于 2015-11-28 13:29:42 | 显示全部楼层
谢谢楼主无私分享好音乐!...........................

管理员已阅至此楼

0

主题

280

帖子

315

积分

乐坛新星

Rank: 2

积分
315

社区QQ达人

发表于 2015-12-4 10:36:22 | 显示全部楼层
跑步时候听 也很OK的   谢谢分享

0

主题

1674

帖子

2201

积分

当红偶像

Rank: 4

积分
2201

社区QQ达人

发表于 2015-12-6 14:50:00 | 显示全部楼层

好听的好音乐    来一个    谢谢楼主
您需要登录后才可以回帖 登录 | 注册

本版积分规则

快速回复 返回顶部 返回列表