查看: 1704|回复: 35

原抓首发:邓丽君 《无与伦比 黑胶2CD》[WAV/CUE/百度]

[复制链接]

415

主题

781

帖子

4万

积分

天王巨星

Rank: 7Rank: 7Rank: 7

积分
41885

社区QQ达人灌水勋章分享勋章

发表于 2015-10-30 18:22:42 | 显示全部楼层 |阅读模式
购买主题 已有 32 人购买  本主题需向作者支付 50 碟CD 才能浏览



上一篇:万晓利《太阳看起来圆圆的》2015APE+LOG/整轨/百度
下一篇:王若琳《Start From Here》2008/特选 DSD/DDF 度盘

415

主题

781

帖子

4万

积分

天王巨星

Rank: 7Rank: 7Rank: 7

积分
41885

社区QQ达人灌水勋章分享勋章

 楼主| 发表于 2015-10-30 18:25:17 | 显示全部楼层











415

主题

781

帖子

4万

积分

天王巨星

Rank: 7Rank: 7Rank: 7

积分
41885

社区QQ达人灌水勋章分享勋章

 楼主| 发表于 2015-10-30 18:26:22 | 显示全部楼层
Exact Audio Copy V1.0 beta 3 from 29. August 2011
EAC 抓取日志文件从28. 十月 2015, 22:43
邓丽君 / 无与伦比 黑胶2CD
使用驱动器  :HL-DT-STDVDROM DH18NS40   Adapter: 2  ID: 0
读取模式 : 安全
读取偏移校正:               : 6
读取 Lead-In 和 Lead-Out : 否
用静音填充抓取中丢失偏移的采样       : 是
去除首尾静音块               : 否
在CRC 计算中使用了空样本       : 是
已用接口                  : Win NT 及 2000 本地 Win32 接口
所用输出模式: : 内部 WAV 函数
样本格式    : 44.100 Hz; 16 Bit; 立体声

已抓取 CD 的 TOC
     音轨 |    起始    |    长度    |  起始扇区  |  结束扇区  
    --------------------------------------------
      1 |  0:00.00 |  2:36.36 |      0 |  11735
      2 |  2:36.36 |  2:53.09 |  11736 |  24719
      3 |  5:29.45 |  2:53.07 |  24720 |  37701
      4 |  8:22.52 |  4:13.27 |  37702 |  56703
      5 | 12:36.04 |  3:28.60 |  56704 |  72363
      6 | 16:04.64 |  3:47.62 |  72364 |  89450
      7 | 19:52.51 |  3:29.46 |  89451 | 105171
      8 | 23:22.22 |  2:50.62 | 105172 | 117983
      9 | 26:13.09 |  3:23.13 | 117984 | 133221
     10 | 29:36.22 |  2:45.02 | 133222 | 145598
     11 | 32:21.24 |  2:54.35 | 145599 | 158683
     12 | 35:15.59 |  4:23.48 | 158684 | 178456
     13 | 39:39.32 |  3:59.26 | 178457 | 196407
     14 | 43:38.58 |  2:48.57 | 196408 | 209064
     15 | 46:27.40 |  3:26.23 | 209065 | 224537

范围状态及错误
已选择范围
     文件名 F:\邓丽君 - 无与伦比 黑胶2CD.wav
     峰值电平 100.0 %
     抓取速度 2.5 X
     复制 CRC 780CAE84
     复制成功
没有错误发生
状态报告结尾

======================
Exact Audio Copy V1.0 beta 3 from 29. August 2011
EAC 抓取日志文件从28. 十月 2015, 23:09
邓丽君  / 邓丽君 《无与伦比 黑胶2CD》
使用驱动器  :HL-DT-STDVDROM DH18NS40   Adapter: 2  ID: 0
读取模式 : 安全
读取偏移校正:               : 6
读取 Lead-In 和 Lead-Out : 否
用静音填充抓取中丢失偏移的采样       : 是
去除首尾静音块               : 否
在CRC 计算中使用了空样本       : 是
已用接口                  : Win NT 及 2000 本地 Win32 接口
所用输出模式: : 内部 WAV 函数
样本格式    : 44.100 Hz; 16 Bit; 立体声

已抓取 CD 的 TOC
     音轨 |    起始    |    长度    |  起始扇区  |  结束扇区  
    --------------------------------------------
      1 |  0:00.00 |  3:43.00 |      0 |  16724
      2 |  3:43.00 |  3:28.12 |  16725 |  32336
      3 |  7:11.12 |  5:12.32 |  32337 |  55768
      4 | 12:23.44 |  4:05.03 |  55769 |  74146
      5 | 16:28.47 |  2:08.24 |  74147 |  83770
      6 | 18:36.71 |  3:05.73 |  83771 |  97718
      7 | 21:42.69 |  3:40.44 |  97719 | 114262
      8 | 25:23.38 |  3:37.38 | 114263 | 130575
      9 | 29:01.01 |  3:01.23 | 130576 | 144173
     10 | 32:02.24 |  3:15.45 | 144174 | 158843
     11 | 35:17.69 |  2:46.61 | 158844 | 171354
     12 | 38:04.55 |  2:46.37 | 171355 | 183841
     13 | 40:51.17 |  3:19.66 | 183842 | 198832
     14 | 44:11.08 |  3:34.07 | 198833 | 214889
     15 | 47:45.15 |  2:45.49 | 214890 | 227313

范围状态及错误
已选择范围
     文件名 F:\邓丽君  - 邓丽君 《无与伦比 黑胶2CD》.wav
     峰值电平 100.0 %
     抓取速度 2.5 X
     复制 CRC 24D8AFFA
     复制成功
没有错误发生
状态报告结尾

1

主题

264

帖子

215

积分

乐坛新星

Rank: 2

积分
215
发表于 2015-10-30 20:03:10 | 显示全部楼层
本帖最后由 asienmann 于 2015-12-29 05:47 编辑

都很好听。都是一种享受。谢谢楼主分享

1

主题

522

帖子

970

积分

职业歌手

Rank: 3Rank: 3

积分
970

社区QQ达人

发表于 2015-11-1 16:15:27 | 显示全部楼层
我也没有想过,也不认为自己可以超越邓丽君

1

主题

14

帖子

45

积分

新人会员,请认真回复,若恶意回复,直接封号

Rank: 1

积分
45
发表于 2015-11-2 20:30:37 | 显示全部楼层
超喜欢邓丽君的歌,嗓音甜美,很有亲和力。

0

主题

75

帖子

356

积分

乐坛新星

Rank: 2

积分
356

社区QQ达人

发表于 2015-11-8 06:30:34 | 显示全部楼层
非常经典的歌曲,一定要支持,谢谢分享,

1

主题

599

帖子

1791

积分

当红偶像

Rank: 4

积分
1791
发表于 2015-11-8 08:06:31 | 显示全部楼层
非常经典的歌曲,一定要支持,谢谢分享。就是太贵了

0

主题

191

帖子

284

积分

乐坛新星

Rank: 2

积分
284
发表于 2015-11-8 08:56:30 | 显示全部楼层
小城故事多,第一首就是啊。随口一哼就中了。

3

主题

52

帖子

81

积分

新人会员,请认真回复,若恶意回复,直接封号

Rank: 1

积分
81
发表于 2015-11-8 17:25:56 | 显示全部楼层
非常喜欢邓丽君的声音   听听 ~~~~~~~~~~~~~~~~

0

主题

21

帖子

35

积分

新人会员,请认真回复,若恶意回复,直接封号

Rank: 1

积分
35
发表于 2015-11-10 15:47:56 | 显示全部楼层
我是新人,才57CD币,我狠心的花掉了,希望楼主不要让我失望的CD

0

主题

56

帖子

92

积分

新人会员,请认真回复,若恶意回复,直接封号

Rank: 1

积分
92

社区QQ达人

发表于 2015-11-16 00:14:36 | 显示全部楼层
邓丽君依然很经典,一直喜欢,谢谢分享

0

主题

90

帖子

159

积分

乐坛新星

Rank: 2

积分
159

社区QQ达人

发表于 2015-11-16 17:25:50 | 显示全部楼层
老爸的最爱!!!!!!!!!!!!!

0

主题

38

帖子

64

积分

新人会员,请认真回复,若恶意回复,直接封号

Rank: 1

积分
64

社区QQ达人

发表于 2015-11-23 10:34:39 | 显示全部楼层
真想听听,可惜没有CD币!!!!!!!!!!!!

0

主题

52

帖子

71

积分

新人会员,请认真回复,若恶意回复,直接封号

Rank: 1

积分
71
发表于 2015-11-28 17:58:16 | 显示全部楼层
Thanks Thanks Thanks Thanks Thanks Thanks Thanks Thanks Thanks Thanks Thanks Thanks Thanks Thanks Thanks Thanks
您需要登录后才可以回帖 登录 | 注册

本版积分规则

快速回复 返回顶部 返回列表