查看: 1593|回复: 38

独立流行民谣:Nicole Andrews《In the Shallows》2015/FLAC/BD+115

[复制链接] [已阅至22楼]
 成长值: 19650

6540

主题

1万

帖子

8万

积分

音乐掌门人

Rank: 20Rank: 20Rank: 20Rank: 20Rank: 20

积分
84397

名人勋章社区QQ达人分享勋章精华帖达人灌水勋章

发表于 2015-10-15 10:06:25 | 显示全部楼层 |阅读模式

注册会员,获得无损资源下载地址,享受高品质音乐。

您需要 登录 才可以下载或查看,没有帐号?注册

x
Front.jpg
Inside 1.png
Nicole Andrews / In the Shallows

Жанр: Indie Pop / Folk
Носитель: CD
Год издания: 2015
Издатель (лейбл): Nicole Andrews Music
Страна исполнителя (группы): New Zealand
Аудиокодек: FLAC (*.flac)
Тип рипа: tracks+.cue
Битрейт аудио: lossless
Продолжительность: 00:51:34

Inside 2.png
Back.jpg
Треклист:
01. Just Another Female Vocalist

02. Practicing Freedom
03. Pixelated Roses
04. Whisper
05. This Heart
06. Happiness
07. Goodnight Sweetheart
08. It's You
09. Good Girl
10. Cold Hearted Beast
11. Time

Exact Audio Copy V1.0 beta 3 from 29. August 2011
EAC extraction logfile from 20. September 2015, 18:39
Nicole Andrews / In the Shallows
Used drive  : HL-DT-STBDDVDRW CH12NS30   Adapter: 0  ID: 0
Read mode               : Secure
Utilize accurate stream : Yes
Defeat audio cache      : Yes
Make use of C2 pointers : No
Read offset correction                      : 6
Overread into Lead-In and Lead-Out          : No
Fill up missing offset samples with silence : Yes
Delete leading and trailing silent blocks   : No
Null samples used in CRC calculations       : Yes
Used interface                              : Native Win32 interface for Win NT & 2000
Gap handling                                : Appended to previous track
Used output format              : User Defined Encoder
Selected bitrate                : 1024 kBit/s
Quality                         : High
Add ID3 tag                     : No
Command line compressor         : C:\Program Files (x86)\Exact Audio Copy\Flac\flac.exe
Additional command line options : -8 -V -T "ARTIST=%artist%" -T "TITLE=%title%" -T "ALBUM=%albumtitle%" -T "DATE=%year%" -T "TRACKNUMBER=%tracknr%" -T "GENRE=%genre%" -T "PERFORMER=%albuminterpret%" -T "COMPOSER=%composer%" %haslyrics%--tag-from-file=LYRICS="%lyricsfile%"%haslyrics% -T "ALBUMARTIST=%albumartist%" -T "DISCNUMBER=%cdnumber%" -T "TOTALDISCS=%totalcds%" -T "TOTALTRACKS=%numtracks%" -T "COMMENT=%comment%" %source% -o %dest%
TOC of the extracted CD
     Track |   Start  |  Length  | Start sector | End sector
    ---------------------------------------------------------
        1  |  0:00.00 |  3:28.17 |         0    |    15616
        2  |  3:28.17 |  5:24.25 |     15617    |    39941
        3  |  8:52.42 |  4:46.06 |     39942    |    61397
        4  | 13:38.48 |  5:01.48 |     61398    |    84020
        5  | 18:40.21 |  3:37.41 |     84021    |   100336
        6  | 22:17.62 |  3:56.31 |    100337    |   118067
        7  | 26:14.18 |  4:54.59 |    118068    |   140176
        8  | 31:09.02 |  3:32.36 |    140177    |   156112
        9  | 34:41.38 |  6:47.37 |    156113    |   186674
       10  | 41:29.00 |  4:21.55 |    186675    |   206304
       11  | 45:50.55 |  5:48.37 |    206305    |   232441
Track  1
     Filename G:\EAC Files\01 - Just Another Female Vocalist.wav
     Pre-gap length  0:00:02.00
     Peak level 96.6 %
     Extraction speed 4.2 X
     Track quality 100.0 %
     Test CRC 2671A76F
     Copy CRC 2671A76F
     Track not present in AccurateRip database
     Copy OK
Track  2
     Filename G:\EAC Files\02 - Practicing Freedom.wav
     Peak level 96.6 %
     Extraction speed 2.9 X
     Track quality 99.9 %
     Test CRC 03901E12
     Copy CRC 03901E12
     Track not present in AccurateRip database
     Copy OK
Track  3
     Filename G:\EAC Files\03 - Pixelated Roses.wav
     Peak level 96.6 %
     Extraction speed 2.2 X
     Track quality 100.0 %
     Test CRC E0A9891B
     Copy CRC E0A9891B
     Track not present in AccurateRip database
     Copy OK
Track  4
     Filename G:\EAC Files\04 - Whisper.wav
     Peak level 96.6 %
     Extraction speed 1.5 X
     Track quality 100.0 %
     Test CRC 7D2FFC5C
     Copy CRC 7D2FFC5C
     Track not present in AccurateRip database
     Copy OK
Track  5
     Filename G:\EAC Files\05 - This Heart.wav
     Peak level 96.6 %
     Extraction speed 1.6 X
     Track quality 100.0 %
     Test CRC C20133B8
     Copy CRC C20133B8
     Track not present in AccurateRip database
     Copy OK
Track  6
     Filename G:\EAC Files\06 - Happiness.wav
     Peak level 96.6 %
     Extraction speed 1.6 X
     Track quality 100.0 %
     Test CRC EEEA8463
     Copy CRC EEEA8463
     Track not present in AccurateRip database
     Copy OK
Track  7
     Filename G:\EAC Files\07 - Goodnight Sweetheart.wav
     Peak level 96.6 %
     Extraction speed 1.6 X
     Track quality 99.9 %
     Test CRC 994FD477
     Copy CRC 994FD477
     Track not present in AccurateRip database
     Copy OK
Track  8
     Filename G:\EAC Files\08 - It's You.wav
     Peak level 96.6 %
     Extraction speed 1.6 X
     Track quality 99.9 %
     Test CRC 222267C2
     Copy CRC 222267C2
     Track not present in AccurateRip database
     Copy OK
Track  9
     Filename G:\EAC Files\09 - Good Girl.wav
     Peak level 96.6 %
     Extraction speed 2.0 X
     Track quality 100.0 %
     Test CRC 03146C1F
     Copy CRC 03146C1F
     Track not present in AccurateRip database
     Copy OK
Track 10
     Filename G:\EAC Files\10 - Cold Hearted Beast.wav
     Peak level 96.6 %
     Extraction speed 2.0 X
     Track quality 100.0 %
     Test CRC EE7D192F
     Copy CRC EE7D192F
     Track not present in AccurateRip database
     Copy OK
Track 11
     Filename G:\EAC Files\11 - Time.wav
     Peak level 96.6 %
     Extraction speed 2.2 X
     Track quality 100.0 %
     Test CRC 850D36E7
     Copy CRC 850D36E7
     Track not present in AccurateRip database
     Copy OK
None of the tracks are present in the AccurateRip database
No errors occurred
End of status report
==== Log checksum A24754D24D33B4AAC02CA94A0D87C6D0FD9549EED3262B231867309ED771CEA8 ====


============================
百度下载:
游客,如果您要查看本帖隐藏内容请回复


115下载:
游客,如果您要查看本帖隐藏内容请回复

来自群组: 欧美流行



上一篇:另类舞曲流行电子:Shamir《Ratchet》(Bonus Track Edition)2015/FLAC/BD+
下一篇:Elvis Costello《Mighty Like a Rose》1991/APE/度盘
关于链接失效的说明(度盘+115盘+快传 好友分享的说明)
http://www.cdbao.net/thread-117499-1-1.html     
紧急通告:115,快传等网盘取消了分享功能礼包码链接全部失效
http://www.cdbao.net/thread-122759-1-1.html

0

主题

239

帖子

275

积分

乐坛新星

Rank: 2

积分
275
发表于 2015-10-15 12:18:46 | 显示全部楼层
这张专辑看起来非常不错,谢谢UP主分享

0

主题

83

帖子

173

积分

乐坛新星

Rank: 2

积分
173
发表于 2015-10-15 20:32:35 | 显示全部楼层
音质好像不错,谢谢分享!声音挺独特

0

主题

182

帖子

358

积分

乐坛新星

Rank: 2

积分
358

社区QQ达人

发表于 2015-10-15 21:58:33 | 显示全部楼层
感觉不错,感谢分享,谢谢,谢谢

0

主题

939

帖子

1870

积分

当红偶像

Rank: 4

积分
1870
发表于 2015-10-16 03:34:26 | 显示全部楼层
非常动听的歌声,跳跃的配乐有种特别的感觉!!!!

0

主题

118

帖子

345

积分

乐坛新星

Rank: 2

积分
345
发表于 2015-10-16 21:56:40 | 显示全部楼层
看起来不错,下载听听!谢谢分享!

1

主题

530

帖子

661

积分

职业歌手

Rank: 3Rank: 3

积分
661

社区QQ达人

发表于 2015-10-16 23:50:49 | 显示全部楼层
试听感觉还可以 感谢LZ的无私分享了

0

主题

1750

帖子

2510

积分

当红偶像

Rank: 4

积分
2510
发表于 2015-10-17 11:02:39 | 显示全部楼层
谢谢楼主分享!封面看起来很舒服,听听感觉如何……

0

主题

188

帖子

210

积分

乐坛新星

Rank: 2

积分
210
发表于 2015-10-17 12:33:17 | 显示全部楼层
很另类  很期待·~  喜欢 这样的音乐·~

0

主题

842

帖子

1246

积分

职业歌手

Rank: 3Rank: 3

积分
1246
发表于 2015-10-17 19:10:44 | 显示全部楼层
相对封面更有吸引力哈,声音雷同性大。谢谢分享。

0

主题

93

帖子

163

积分

乐坛新星

Rank: 2

积分
163
发表于 2015-10-17 23:03:11 | 显示全部楼层
谢谢楼主分享!!!找了很久啦!!!

0

主题

259

帖子

257

积分

乐坛新星

Rank: 2

积分
257
发表于 2015-10-18 05:44:01 | 显示全部楼层
这张专辑看起来非常不错,谢谢UP主分享
 成长值: 140

1

主题

152

帖子

969

积分

VIP1

Rank: 4

积分
969
发表于 2015-10-18 14:54:35 | 显示全部楼层
乐感不错,歌手声音也很有特色

0

主题

724

帖子

1438

积分

当红偶像

Rank: 4

积分
1438

社区QQ达人

发表于 2015-10-19 11:00:18 | 显示全部楼层
没仔细听,光注意封面了,明显没拍好,有没有全身的?哈
您需要登录后才可以回帖 登录 | 注册

本版积分规则

快速回复 返回顶部 返回列表