查看: 1238|回复: 35

爵士.流行.小号:Herb Alpert《Come Fly With Me》2015/FLAC/BD+115

[复制链接] [已阅至25楼]
 成长值: 19605

6487

主题

1万

帖子

8万

积分

音乐掌门人

Rank: 20Rank: 20Rank: 20Rank: 20Rank: 20

积分
83930

名人勋章社区QQ达人分享勋章精华帖达人灌水勋章

发表于 2015-10-11 08:06:54 | 显示全部楼层 |阅读模式

注册会员,获得无损资源下载地址,享受高品质音乐。

您需要 登录 才可以下载或查看,没有帐号?注册

x
folder.jpg

艺人:         Herb Alpert
语种:         英语
唱片公司:         Herb Alpert Presents
发行时间:         2015年09月25日
专辑类别:         录音室专辑

Herb Alpert 的音乐成就 包括五人一点击,2008年登上排行榜的专辑,8个格莱美奖,14个白金唱片,15金唱片。截至1996年,阿尔珀特已售出72000000专辑全球。

Herb Alpert - Come Fly With Me

Жанр: Jazz-Pop, Trumpet
Носитель: CD
Год издания: 2015
Издатель (лейбл): Herb Alpert Presents, Inc.
Номер по каталогу: HRB001
Аудиокодек: FLAC (*.flac)
Тип рипа: image+.cue
Битрейт аудио: lossless
Продолжительность: 41:11


Треклист:
01. Come Fly With Me (2:42)

02. Blue Skies (3:40)
03. Got A Lot Of Livin' To Do (3:01)
04. Cheeky (3:25)
05. Take The 'A' Train (2:45)
06. Love Affair (4:12)
07. Windy City (4:32)
08. Sweet And Lovely (2:42)
09. Walkin' Tall (2:57)
10. Night Ride (3:15)
11. Something (2:53)
12. On The Sunny Side Of The Street (1:42)
13. Danny Boy (3:25)
Exact Audio Copy V1.0 beta 2 from 29. April 2011
EAC extraction logfile from 25. September 2015, 21:48
Herb Alpert / Come Fly With Me
Used drive  : HL-DT-STDVDRAM GH60N   Adapter: 0  ID: 1
Read mode               : Secure
Utilize accurate stream : Yes
Defeat audio cache      : Yes
Make use of C2 pointers : No
Read offset correction                      : 667
Overread into Lead-In and Lead-Out          : No
Fill up missing offset samples with silence : Yes
Delete leading and trailing silent blocks   : No
Null samples used in CRC calculations       : Yes
Used interface                              : Native Win32 interface for Win NT & 2000
Used output format              : User Defined Encoder
Selected bitrate                : 1024 kBit/s
Quality                         : High
Add ID3 tag                     : No
Command line compressor         : C:\Program Files (x86)\Exact Audio Copy\Flac\flac.exe
Additional command line options : -V -5 -T "artist=%albumartist%" -T "title=%title%" -T "album=%albumtitle%" -T "date=%year%" -T "genre=%genre%" -T "tracknumber=%tracknr%" %source%
TOC of the extracted CD
     Track |   Start  |  Length  | Start sector | End sector
    ---------------------------------------------------------
        1  |  0:00.00 |  2:41.47 |         0    |    12121
        2  |  2:41.47 |  3:39.60 |     12122    |    28606
        3  |  6:21.32 |  3:01.32 |     28607    |    42213
        4  |  9:22.64 |  3:24.46 |     42214    |    57559
        5  | 12:47.35 |  2:44.60 |     57560    |    69919
        6  | 15:32.20 |  4:11.51 |     69920    |    88795
        7  | 19:43.71 |  4:31.49 |     88796    |   109169
        8  | 24:15.45 |  2:42.34 |    109170    |   121353
        9  | 26:58.04 |  2:57.31 |    121354    |   134659
       10  | 29:55.35 |  3:15.26 |    134660    |   149310
       11  | 33:10.61 |  2:53.09 |    149311    |   162294
       12  | 36:03.70 |  1:41.74 |    162295    |   169943
       13  | 37:45.69 |  3:25.35 |    169944    |   185353
Range status and errors
Selected range
     Filename C:\EAC\Herb Alpert - (2015) Come Fly With Me\Herb Alpert - Come Fly With Me.wav
     Peak level 100.0 %
     Extraction speed 1.6 X
     Range quality 99.9 %
     Test CRC 12EC289E
     Copy CRC 12EC289E
     Copy OK
No errors occurred
AccurateRip summary
Track  1  not present in database
Track  2  not present in database
Track  3  not present in database
Track  4  not present in database
Track  5  not present in database
Track  6  not present in database
Track  7  not present in database
Track  8  not present in database
Track  9  not present in database
Track 10  not present in database
Track 11  not present in database
Track 12  not present in database
Track 13  not present in database
None of the tracks are present in the AccurateRip database
End of status report
==== Log checksum AA79C14FBE9FB0DE4BC38C1756FD5E378B19DF1B42F68D0B2900BEAF5CD36034 ====

==============================
百度下载:
游客,如果您要查看本帖隐藏内容请回复


115下载:
游客,如果您要查看本帖隐藏内容请回复
来自群组: 欧美流行



上一篇:合成器.流行:Hurts(伤痛乐队)《Surrender》2015豪华版/FLAC/BD+115
下一篇:流行摇滚:Rea Garvey(ex Reamonn)《3专辑》2012-2015/FLAC/BD+115
关于链接失效的说明(度盘+115盘+快传 好友分享的说明)
http://www.cdbao.net/thread-117499-1-1.html     
紧急通告:115,快传等网盘取消了分享功能礼包码链接全部失效
http://www.cdbao.net/thread-122759-1-1.html

0

主题

408

帖子

1839

积分

当红偶像

Rank: 4

积分
1839

社区QQ达人

发表于 2015-10-11 15:08:17 | 显示全部楼层
谢楼主分享Herb Alpert《Come Fly With Me》2015好碟。

0

主题

740

帖子

1710

积分

当红偶像

Rank: 4

积分
1710
发表于 2015-10-11 16:43:58 | 显示全部楼层
很不错的专辑,很喜欢,楼主辛苦了!

0

主题

11

帖子

82

积分

新人会员,请认真回复,若恶意回复,直接封号

Rank: 1

积分
82
发表于 2015-10-11 19:52:29 | 显示全部楼层
听了试听决定下载了
感谢分享
integral

1

主题

67

帖子

799

积分

职业歌手

Rank: 3Rank: 3

积分
799

社区QQ达人

发表于 2015-10-11 20:52:02 | 显示全部楼层
欣赏这个的时候别人很定会觉得我很有逼格

0

主题

66

帖子

143

积分

新人会员,请认真回复,若恶意回复,直接封号

Rank: 1

积分
143
发表于 2015-10-12 19:38:45 | 显示全部楼层
很喜欢小号,尤其是古典和爵士小号,可惜资源不算很多,所以非常感谢分享

0

主题

77

帖子

202

积分

乐坛新星

Rank: 2

积分
202
发表于 2015-10-13 16:24:38 | 显示全部楼层
很不错的专辑,很喜欢,楼主辛苦了!

0

主题

667

帖子

-1159

积分

恶意回复被扣没分了,积分增加方法见置顶帖

积分
-1159
发表于 2015-10-14 06:52:38 | 显示全部楼层
感謝樓主的熱心分享, 先收下.

0

主题

272

帖子

420

积分

乐坛新星

Rank: 2

积分
420
发表于 2015-10-14 19:03:32 | 显示全部楼层
谢谢掌门人!又是爵士乐!收下了

0

主题

259

帖子

257

积分

乐坛新星

Rank: 2

积分
257
发表于 2015-10-15 07:44:32 | 显示全部楼层
谢楼主分享Herb Alpert《Come Fly With Me》2015好碟。

0

主题

11

帖子

69

积分

新人会员,请认真回复,若恶意回复,直接封号

Rank: 1

积分
69

社区QQ达人

发表于 2015-10-17 11:51:19 | 显示全部楼层
Very good ! I really want to have this !
Thanks

0

主题

42

帖子

110

积分

新人会员,请认真回复,若恶意回复,直接封号

Rank: 1

积分
110
发表于 2015-10-17 17:27:50 | 显示全部楼层
没听过= =试试刚刚买的ZX1放这些的效果。

0

主题

836

帖子

1239

积分

职业歌手

Rank: 3Rank: 3

积分
1239
发表于 2015-10-17 19:24:09 | 显示全部楼层
虽是小号,但有点新乐风的味道。谢谢分享。

0

主题

34

帖子

91

积分

新人会员,请认真回复,若恶意回复,直接封号

Rank: 1

积分
91
发表于 2015-10-17 19:31:07 | 显示全部楼层
一听到小号的声音就觉得心情很好呢

0

主题

93

帖子

163

积分

乐坛新星

Rank: 2

积分
163
发表于 2015-10-17 23:05:10 | 显示全部楼层
谢谢楼主分享!!!找了很久啦!!!
您需要登录后才可以回帖 登录 | 注册

本版积分规则

快速回复 返回顶部 返回列表