查看: 524|回复: 6

[LIVE] In Flames《Rock Am Ring》2015/TS/720P/BD+115/4.39GB

[复制链接]
 成长值: 19545

6460

主题

1万

帖子

8万

积分

音乐掌门人

Rank: 20Rank: 20Rank: 20Rank: 20Rank: 20

积分
83668

名人勋章社区QQ达人分享勋章精华帖达人灌水勋章

发表于 2015-9-24 12:26:45 | 显示全部楼层 |阅读模式

注册会员,获得无损资源下载地址,享受高品质音乐。

您需要 登录 才可以下载或查看,没有帐号?注册

x
9d4b5c145404.png
Жанр: Melodic death metal
Продолжительность: 00:43:00
Год выпуска: 2015
Качество: HDTV 720p
Контейнер: TS
Видео кодек: H.264
Аудио кодек: AC3
Видео: MPEG4 Video (H264) 1280x720 50fps 13.5 Mbps
Аудио: Dolby AC3 48000Hz stereo 448kbps

thumbs20150924121905.jpg
thumbs20150924121932.jpg
thumbs20150924121945.jpg
thumbs20150924122012.jpg
01. Bullet Ride
02. Where the Dead Ships Dwell
03. Paralyzed
04. Alias
05. Deliver Us
06. Cloud Connected
07. The Quiet Place
08. Delight and Angers
09. The Mirror's Truth
10. Take This Life

General
ID                             : 1 (0x1)
Complete name                  : L:\In Flames - Rock Am Ring 2015.ts
Format                         : MPEG-TS
File size                      : 4.39 GiB
Duration                       : 42mn 59s
Overall bit rate mode          : Variable
Overall bit rate               : 14.6 Mbps
Video
ID                             : 5421 (0x152D)
Menu ID                        : 1 (0x1)
Format                         : AVC
Format/Info                    : Advanced Video Codec
Format profile                 : [email protected]
Format settings, CABAC         : Yes
Format settings, ReFrames      : 4 frames
Codec ID                       : 27
Duration                       : 42mn 59s
Bit rate                       : 13.5 Mbps
Width                          : 1 280 pixels
Height                         : 720 pixels
Display aspect ratio           : 16:9
Frame rate                     : 50.000 fps
Color space                    : YUV
Chroma subsampling             : 4:2:0
Bit depth                      : 8 bits
Scan type                      : Progressive
Bits/(Pixel*Frame)             : 0.292
Stream size                    : 4.04 GiB (92%)
Audio
ID                             : 5426 (0x1532)
Menu ID                        : 1 (0x1)
Format                         : AC-3
Format/Info                    : Audio Coding 3
Mode extension                 : CM (complete main)
Format settings, Endianness    : Big
Codec ID                       : 6
Duration                       : 42mn 59s
Bit rate mode                  : Constant
Bit rate                       : 448 Kbps
Channel(s)                     : 2 channels
Channel positions              : Front: L R
Sampling rate                  : 48.0 KHz
Bit depth                      : 16 bits
Compression mode               : Lossy
Stream size                    : 138 MiB (3%)
Language                       : German

=================================
百度下载:
游客,如果您要查看本帖隐藏内容请回复


115下载:
游客,如果您要查看本帖隐藏内容请回复
来自群组: 金属圣殿



上一篇:In Flames《Live at Hellfest》21.06.2015/AVI/BD+115
下一篇:In Flames《Wacken 2015》TS/720P/BD+115/5.89GB
关于链接失效的说明(度盘+115盘+快传 好友分享的说明)
http://www.cdbao.net/thread-117499-1-1.html     
紧急通告:115,快传等网盘取消了分享功能礼包码链接全部失效
http://www.cdbao.net/thread-122759-1-1.html

0

主题

64

帖子

561

积分

职业歌手

Rank: 3Rank: 3

积分
561
发表于 2015-9-25 15:02:42 | 显示全部楼层
看看摇滚现场,感谢分享!!

0

主题

609

帖子

801

积分

职业歌手

Rank: 3Rank: 3

积分
801
发表于 2015-9-28 11:49:46 | 显示全部楼层
很猛的乐队 阿!~喜欢!!~下来仔细听听!@!~

0

主题

36

帖子

112

积分

新人会员,请认真回复,若恶意回复,直接封号

Rank: 1

积分
112
发表于 2016-4-4 19:26:59 | 显示全部楼层
in flames,下来看看,感谢分享

0

主题

478

帖子

656

积分

职业歌手

Rank: 3Rank: 3

积分
656
发表于 2016-6-11 00:33:40 | 显示全部楼层
In Flames《Rock Am Ring》难得 难得

1

主题

17

帖子

393

积分

乐坛新星

Rank: 2

积分
393
发表于 2016-9-21 09:05:27 | 显示全部楼层
大爱的in flames。来看看2015的现场。

1

主题

17

帖子

393

积分

乐坛新星

Rank: 2

积分
393
发表于 2016-9-21 09:18:32 | 显示全部楼层
楼主。。。百度云的链接失效了。。。
您需要登录后才可以回帖 登录 | 注册

本版积分规则

快速回复 返回顶部 返回列表