查看: 478|回复: 2

[欧美摇滚] 丹麦残死:Defilementory《The Dismal Ascension》2014/FLAC/BD+115

[复制链接]
 成长值: 19620

6514

主题

1万

帖子

8万

积分

音乐掌门人

Rank: 20Rank: 20Rank: 20Rank: 20Rank: 20

积分
84207

名人勋章社区QQ达人分享勋章精华帖达人灌水勋章

发表于 2015-8-29 09:46:07 | 显示全部楼层 |阅读模式

注册会员,获得无损资源下载地址,享受高品质音乐。

您需要 登录 才可以下载或查看,没有帐号?注册

x
3540312360_logo.png
3540312360_photo.jpg
Defilementory

Country of origin:
    Denmark
Location:
    Roskilde, Sjælland
Status:
    Active
Formed in:
    2008
Genre:
    Brutal Death Metal
Lyrical themes:
    Misanthropy, Dystopia, Humanity
Current label:
    Torture Music Records
Years active:
    2008-present


====================
folder.jpg

艺人:         Defilementory
语种:         英语
唱片公司:         Torture Music Records
发行时间:         2014年07月18日
专辑类别:         录音室专辑


Defilementory专辑介绍:
All music and lyrics written and composed by Thomas Fischer
Music co-written by Johnny Panduro Jacobsen on track 2 & 10
Lyrics co-written by Johnny Panduro Jacobsen on track 8-10

All leads by Simon Klem Kannegaard

Drum arrangement by Richardt Olsen & Thomas Fischer

Recorded with Anders Norddal at Ducksound Productions
Mixed by Hugues Deslauriers at Surgeon's Lab Studio
Mastered by Colin Marston at Menegroth, The Thousand Caves Studio

1.jpg
2.jpg
3.jpg
4.jpg
5.jpg
6.jpg
7.jpg
9.jpg
8.jpg
10.jpg
11.jpg
Defilementory / The Dismal Ascension

Жанр: Brutal Death Metal
Носитель: CD
Страна-производитель диска (релиза): Germany
Год издания: 2014
Издатель (лейбл): Torture Music Records
Номер по каталогу: TMR003
Страна исполнителя (группы): Denmark
Аудиокодек: FLAC (*.flac)
Тип рипа: image+.cue
Битрейт аудио: lossless
Продолжительность: 41:55
Источник (релизер): C.D.

Треклист:
1. Intro 01:53
2. Misanthropic Emancipation 03:54
3. In Soullessness - Supremacy 03:14
4. The Mask of Anatomy 03:53
5. Endless Abjure 04:42
6. The Horrid Reflection 03:53 Show lyrics
7. Abhorred Veracity 03:47
8. Vengeance 03:36
9. Despair 04:41
10. Sovereign 04:04
11. Departure 04:18


Exact Audio Copy V1.1 from 23. June 2015

EAC extraction logfile from 19. July 2015, 11:12

Defilementory / The Dismal Ascension

Used drive  : SlimtypeDVD A DS8A5SH   Adapter: 0  ID: 0

Read mode               : Secure
Utilize accurate stream : Yes
Defeat audio cache      : Yes
Make use of C2 pointers : No

Read offset correction                      : 6
Overread into Lead-In and Lead-Out          : No
Fill up missing offset samples with silence : Yes
Delete leading and trailing silent blocks   : No
Null samples used in CRC calculations       : Yes
Used interface                              : Installed external ASPI interface

Used output format              : User Defined Encoder
Selected bitrate                : 896 kBit/s
Quality                         : High
Add ID3 tag                     : No
Command line compressor         : C:\Program Files\Exact Audio Copy\Flac\flac.exe
Additional command line options : -V -8 %source%


TOC of the extracted CD

     Track |   Start  |  Length  | Start sector | End sector
    ---------------------------------------------------------
        1  |  0:00.00 |  1:53.49 |         0    |     8523   
        2  |  1:53.49 |  3:54.59 |      8524    |    26132   
        3  |  5:48.33 |  3:14.32 |     26133    |    40714   
        4  |  9:02.65 |  3:53.58 |     40715    |    58247   
        5  | 12:56.48 |  4:42.24 |     58248    |    79421   
        6  | 17:38.72 |  3:53.27 |     79422    |    96923   
        7  | 21:32.24 |  3:47.13 |     96924    |   113961   
        8  | 25:19.37 |  3:36.46 |    113962    |   130207   
        9  | 28:56.08 |  4:41.17 |    130208    |   151299   
       10  | 33:37.25 |  4:04.44 |    151300    |   169643   
       11  | 37:41.69 |  4:18.29 |    169644    |   189022   


Range status and errors

Selected range

     Filename D:\Музыка\Музыка 13\Й-ух\Defilementory - The Dismal Ascension.wav

     Peak level 99.8 %
     Extraction speed 2.8 X
     Range quality 100.0 %
     Test CRC C32DBDDD
     Copy CRC C32DBDDD
     Copy OK

No errors occurred


AccurateRip summary

Track  1  accurately ripped (confidence 1)  [1BC54D2D]  (AR v2)
Track  2  accurately ripped (confidence 1)  [96DF0BED]  (AR v2)
Track  3  accurately ripped (confidence 1)  [4EA8C0E6]  (AR v2)
Track  4  accurately ripped (confidence 1)  [76BFE1B5]  (AR v2)
Track  5  accurately ripped (confidence 1)  [39405045]  (AR v2)
Track  6  accurately ripped (confidence 1)  [E0FC1888]  (AR v2)
Track  7  accurately ripped (confidence 1)  [5A93AEE3]  (AR v2)
Track  8  accurately ripped (confidence 1)  [8C3DFFCD]  (AR v2)
Track  9  accurately ripped (confidence 1)  [89AA9B73]  (AR v2)
Track 10  accurately ripped (confidence 1)  [79FA081E]  (AR v2)
Track 11  accurately ripped (confidence 1)  [0771EFBB]  (AR v2)

All tracks accurately ripped

End of status report

---- CUETools DB Plugin V2.1.6

[CTDB TOCID: pDci8hqUdUs2otMTOOFjXH4FatU-] found
Submit result: pDci8hqUdUs2otMTOOFjXH4FatU- has been confirmed
Track | CTDB Status
  1   | (1/1) Accurately ripped
  2   | (1/1) Accurately ripped
  3   | (1/1) Accurately ripped
  4   | (1/1) Accurately ripped
  5   | (1/1) Accurately ripped
  6   | (1/1) Accurately ripped
  7   | (1/1) Accurately ripped
  8   | (1/1) Accurately ripped
  9   | (1/1) Accurately ripped
10   | (1/1) Accurately ripped
11   | (1/1) Accurately ripped


------------------------------------------------------------

Exact Audio Copy V1.1 from 23. June 2015

EAC extraction logfile from 19. July 2015, 11:12

Defilementory / The Dismal Ascension

Used drive  : SlimtypeDVD A DS8A5SH   Adapter: 0  ID: 0

Read mode               : Secure
Utilize accurate stream : Yes
Defeat audio cache      : Yes
Make use of C2 pointers : No

Read offset correction                      : 6
Overread into Lead-In and Lead-Out          : No
Fill up missing offset samples with silence : Yes
Delete leading and trailing silent blocks   : No
Null samples used in CRC calculations       : Yes
Used interface                              : Installed external ASPI interface

Used output format              : User Defined Encoder
Selected bitrate                : 896 kBit/s
Quality                         : High
Add ID3 tag                     : No
Command line compressor         : C:\Program Files\Exact Audio Copy\Flac\flac.exe
Additional command line options : -V -8 %source%


TOC of the extracted CD

     Track |   Start  |  Length  | Start sector | End sector
    ---------------------------------------------------------
        1  |  0:00.00 |  1:53.49 |         0    |     8523   
        2  |  1:53.49 |  3:54.59 |      8524    |    26132   
        3  |  5:48.33 |  3:14.32 |     26133    |    40714   
        4  |  9:02.65 |  3:53.58 |     40715    |    58247   
        5  | 12:56.48 |  4:42.24 |     58248    |    79421   
        6  | 17:38.72 |  3:53.27 |     79422    |    96923   
        7  | 21:32.24 |  3:47.13 |     96924    |   113961   
        8  | 25:19.37 |  3:36.46 |    113962    |   130207   
        9  | 28:56.08 |  4:41.17 |    130208    |   151299   
       10  | 33:37.25 |  4:04.44 |    151300    |   169643   
       11  | 37:41.69 |  4:18.29 |    169644    |   189022   


Range status and errors

Selected range

     Filename D:\Музыка\Музыка 13\Й-ух\Defilementory - The Dismal Ascension.wav

     Peak level 99.8 %
     Extraction speed 2.8 X
     Range quality 100.0 %
     Test CRC C32DBDDD
     Copy CRC C32DBDDD
     Copy OK

No errors occurred


AccurateRip summary

Track  1  accurately ripped (confidence 1)  [1BC54D2D]  (AR v2)
Track  2  accurately ripped (confidence 1)  [96DF0BED]  (AR v2)
Track  3  accurately ripped (confidence 1)  [4EA8C0E6]  (AR v2)
Track  4  accurately ripped (confidence 1)  [76BFE1B5]  (AR v2)
Track  5  accurately ripped (confidence 1)  [39405045]  (AR v2)
Track  6  accurately ripped (confidence 1)  [E0FC1888]  (AR v2)
Track  7  accurately ripped (confidence 1)  [5A93AEE3]  (AR v2)
Track  8  accurately ripped (confidence 1)  [8C3DFFCD]  (AR v2)
Track  9  accurately ripped (confidence 1)  [89AA9B73]  (AR v2)
Track 10  accurately ripped (confidence 1)  [79FA081E]  (AR v2)
Track 11  accurately ripped (confidence 1)  [0771EFBB]  (AR v2)

All tracks accurately ripped

End of status report

---- CUETools DB Plugin V2.1.6

[CTDB TOCID: pDci8hqUdUs2otMTOOFjXH4FatU-] found
Submit result: pDci8hqUdUs2otMTOOFjXH4FatU- has been confirmed
Track | CTDB Status
  1   | (1/1) Accurately ripped
  2   | (1/1) Accurately ripped
  3   | (1/1) Accurately ripped
  4   | (1/1) Accurately ripped
  5   | (1/1) Accurately ripped
  6   | (1/1) Accurately ripped
  7   | (1/1) Accurately ripped
  8   | (1/1) Accurately ripped
  9   | (1/1) Accurately ripped
10   | (1/1) Accurately ripped
11   | (1/1) Accurately ripped



==================================
百度下载:
游客,如果您要查看本帖隐藏内容请回复


115下载:
游客,如果您要查看本帖隐藏内容请回复
来自群组: 金属圣殿



上一篇:美残死碾:Images Of Violence《Revenants》2013/WV/BD+115
下一篇:法残死:Kronos《Colossal Titan Strife》2004/FLAC/BD+115
关于链接失效的说明(度盘+115盘+快传 好友分享的说明)
http://www.cdbao.net/thread-117499-1-1.html     
紧急通告:115,快传等网盘取消了分享功能礼包码链接全部失效
http://www.cdbao.net/thread-122759-1-1.html

1

主题

4235

帖子

4437

积分

人气天王

Rank: 5Rank: 5

积分
4437

社区QQ达人

发表于 2016-8-27 01:08:10 | 显示全部楼层
一直很喜欢的风格,这个必须要听一下,支持了,大赞,谢谢楼主

0

主题

260

帖子

375

积分

乐坛新星

Rank: 2

积分
375
发表于 2016-10-5 09:06:56 | 显示全部楼层
谢谢楼主分享!!!!!!!!!!!!
您需要登录后才可以回帖 登录 | 注册

本版积分规则

快速回复 返回顶部 返回列表