查看: 1072|回复: 32

[演唱会] 蔡琴2010海上良宵演唱会720P/ MKV/百度+快传

[复制链接]
 成长值: 21709

1793

主题

2165

帖子

11万

积分

音乐总监

Rank: 15Rank: 15Rank: 15Rank: 15Rank: 15

积分
119666

社区QQ达人

发表于 2015-8-17 05:41:12 | 显示全部楼层 |阅读模式

注册会员,获得无损资源下载地址,享受高品质音乐。

您需要 登录 才可以下载或查看,没有帐号?注册

x
本帖最后由 醉耳 于 2015-8-17 05:40 编辑










蔡琴2010海上良宵演唱会.mkv_20150817_130731.078.jpg
蔡琴2010海上良宵演唱会.mkv_20150817_130911.875.jpg
蔡琴2010海上良宵演唱会.mkv_20150817_130934.062.jpg
蔡琴2010海上良宵演唱会.mkv_20150817_130949.984.jpg



商品信息
蔡琴2010海上良宵演唱会.mkv
Format                         : Matroska
Format version                 : Version 2
File size                      : 7.93 GiB
Duration                       : 1h 51mn
Overall bit rate               : 10.2 Mbps
Encoded date                   : UTC 2011-01-29 05:29:27
Writing application            : mkvmerge v3.2.0 ('Beginnings') built on Feb 12 2010 16:46:17
Writing library                : libebml v0.7.9 + libmatroska v0.8.1
Video
ID                             : 1
Format                         : AVC
Format/Info                    : Advanced Video Codec
Format profile                 :
[email protected]
Format settings, CABAC         : Yes
Format settings, ReFrames      : 9 frames
Codec ID                       : V_MPEG4/ISO/AVC
Duration                       : 1h 51mn
Bit rate                       : 8 461 Kbps
Width                          : 1 280 pixels
Height                         : 720 pixels
Display aspect ratio           : 16:9
Frame rate mode                : Constant
Frame rate                     : 29.970 fps
Color space                    : YUV
Chroma subsampling             : 4:2:0
Bit depth                      : 8 bits
Scan type                      : Progressive
Bits/(Pixel*Frame)             : 0.306
Stream size                    : 6.45 GiB (81%)
Writing library                : x264 core 107 r1766 f9f0035
Encoding settings              : cabac=1 / ref=9 / deblock=1:-3:-3 / analyse=0x3:0x113 / me=umh / subme=10 / psy=1 / psy_rd=1.05:0.00 / mixed_ref=1 / me_range=48 / chroma_me=1 / trellis=2 / 8x8dct=1 / cqm=2 / deadzone=21,11 / fast_pskip=0 / chroma_qp_offset=-1 / threads=12 / sliced_threads=0 / nr=0 / decimate=1 / interlaced=0 / constrained_intra=0 / bframes=6 / b_pyramid=2 / b_adapt=2 / b_bias=0 / direct=3 / weightb=1 / open_gop=0 / weightp=2 / keyint=250 / keyint_min=25 / scenecut=40 / intra_refresh=0 / rc_lookahead=50 / rc=2pass / mbtree=1 / bitrate=8461 / ratetol=1.0 / qcomp=0.60 / qpmin=10 / qpmax=51 / qpstep=4 / cplxblur=20.0 / qblur=0.5 / vbv_maxrate=50000 / vbv_bufsize=50000 / ip_ratio=1.40 / aq=1:0.80 / nal_hrd=none
Language                       : English
Default                        : No
Forced                         : No
Audio #1
ID                             : 2
Format                         : DTS
Format/Info                    : Digital Theater Systems
Mode                           : 16
Format settings, Endianness    : Big
Codec ID                       : A_DTS
Duration                       : 1h 51mn
Bit rate mode                  : Constant
Bit rate                       : 1 509 Kbps
Channel(s)                     : 6 channels
Channel positions              : Front: L C R, Side: L R, LFE
Sampling rate                  : 48.0 KHz
Bit depth                      : 24 bits
Compression mode               : Lossy
Stream size                    : 1.18 GiB (15%)
Title                          : Mandarin DTS 5.1
Language                       : Chinese
Default                        : Yes
Forced                         : No
Audio #2
ID                             : 3
Format                         : AC-3
Format/Info                    : Audio Coding 3
Mode extension                 : CM (complete main)
Format settings, Endianness    : Big
Codec ID                       : A_AC3
Duration                       : 1h 51mn
Bit rate mode                  : Constant
Bit rate                       : 192 Kbps
Channel(s)                     : 2 channels
Channel positions              : Front: L R
Sampling rate                  : 48.0 KHz
Compression mode               : Lossy
Stream size                    : 153 MiB (2%)
Title                          : Karaoke DD 2.0
Language                       : Chinese
Default                        : No
Forced                         : No
Menu
00:00:00.000                   : en:01. Overture
00:01:32.025                   : en:02. 我有一段情
00:05:38.071                   : en:03. 苏州河边
00:10:02.001                   : en:04. 未识绮罗香
00:18:56.869                   : en:05. 明月千里寄相思
00:22:54.005                   : en:06. 愿嫁汉家郎
00:28:44.089                   : en:07. 你是春日风
00:34:08.012                   : en:08. 秋夜
00:39:47.585                   : en:09. 晚霞
00:45:03.100                   : en:10. 南屏晚钟
00:48:40.117                   : en:11. 爱神的箭
00:53:36.479                   : en:12. 春风吻上我的脸
00:59:52.455                   : en:13. 空中歌声
01:03:30.473                   : en:14. 梦里相思
01:07:44.460                   : en:15. 情人的眼泪
01:14:34.703                   : en:16. 相思河畔
01:20:53.114                   : en:17. El Condor Pasa (陈天行)
01:26:01.489                   : en:18. 女儿圈
01:32:08.856                   : en:19. 采槟榔
01:40:16.944                   : en:20. 人生就是戏
01:44:21.021                   : en:21. 十八姑娘一朵花
01:48:39.546                   : en:22. 读你
01:51:51.504                   : en:23. 海上良宵
01:54:57.023                   : en:24. 你的眼神
02:04:58.490                   : en:25. 被遗忘的时光
02:09:37.703                   : en:26. 不了情
02:12:57.703                   : en:27. 何日君再来
02:17:58.803                   : en:28. 新不了情
02:22:25.737                   : en:29. 抉择
02:27:25.603                   : en:30. 最后一夜
02:35:24.348                   : en:31. 就这样约定
02:40:55.278                   : en:32. 恰似你的温柔

视频简介
2010年,出色的歌者蔡琴在上海、北京、香港、台北舉行了《海上良宵》音樂會,讓一直渴望聽到她聲音的樂迷得以近距離作心靈交流。經典值得傳揚,《海上良宵》音樂會今天以高質素錄影器材將演唱會重現歌迷眼前,叫一切愛她及愛她作品的,都能再次重溫蔡琴為你準備的「海上良宵」。
.Video Channel 全高清1920x1080 千萬至尊級器材拍攝
.24bit/96kHz錄音
.Multi-Audio Karaoke
.頂級Dolby TrueHD環繞聲效
蔡琴2010《海上良宵》香港演唱會卡拉OK (BD)
2010年的「蔡琴海上良宵」令您再度感動
闊別紅館三載 風采更勝當年
三十多首[經典名曲]及[夜上海金曲] 一一活現眼前
BD包括您最喜歡: 我有一段情、春風吻上我的臉、
情人的眼淚、相思河畔、海上良宵……
01. Overture
02. 我有一段情
03. 蘇州河邊
04. 未識綺羅香
05. 明月千里寄相思
06. 願嫁漢家郎
07. 你是春日風
08. 秋夜
09. 晚霞
10. 南屏晚鐘
11. 愛神的箭
12. 春風吻上我的臉
13. 空中歌聲
14. 夢裡相思
15. 情人的眼淚
16. 相思河畔
17. El Condor Pasa (陳天行)
18. 女兒圈
19. 採檳榔
20. 人生就是戲
21. 十八姑娘一朵花
22. 讀你
23. 海上良宵
24. 你的眼神
25. 被遺忘的時光
26. 不了情
27. 何日君再來
28. 新不了情
29. 抉擇
30. 最後一夜
31. 就這樣約定
32. 恰似你的溫柔


资源来自网络  醉耳整理上传
如喜欢请支持正版!
如本人所发资源有被和谐失效的
请用站内信告知我会尽快补档
解压密码:www.cdbao.net
下载地址:
回复后:帖子靛青色部分为快传地址,
蓝底色为百度云盘下载地址。

游客,如果您要查看本帖隐藏内容请回复










上一篇:魅力中国-宋祖英2009鸟巢夏季音乐会 DTS-MKV1080P/快传+百度
下一篇:S.H.E. 永远在一起 2014 最相爱演唱会安/蓝光原盘ISO镜像/快传
不追新 不赶潮 只爱经典好声音

0

主题

107

帖子

169

积分

乐坛新星

Rank: 2

积分
169
发表于 2015-8-23 21:53:50 | 显示全部楼层
谢谢啦,听听怎么样,下载下来看看。

0

主题

192

帖子

296

积分

乐坛新星

Rank: 2

积分
296

社区QQ达人

发表于 2015-8-26 08:24:48 | 显示全部楼层
看上去不错的样子,下为听听,感谢楼主分享。

0

主题

5

帖子

59

积分

新人会员,请认真回复,若恶意回复,直接封号

Rank: 1

积分
59
发表于 2015-8-27 23:59:21 | 显示全部楼层
必须收藏的啊,致敬,谢谢分享

0

主题

93

帖子

165

积分

乐坛新星

Rank: 2

积分
165
发表于 2015-8-29 19:09:59 | 显示全部楼层

謝謝分享!必须收藏的啊,真是太好了

0

主题

38

帖子

181

积分

乐坛新星

Rank: 2

积分
181

社区QQ达人

发表于 2015-9-3 12:29:56 | 显示全部楼层
下来看看谢谢楼主分享谢谢我喜欢的蔡琴

0

主题

272

帖子

418

积分

乐坛新星

Rank: 2

积分
418
发表于 2015-9-4 08:15:22 | 显示全部楼层
感谢楼主,下载分享,辛苦了!!

0

主题

119

帖子

185

积分

乐坛新星

Rank: 2

积分
185
发表于 2015-9-14 21:34:38 | 显示全部楼层
收藏了。。。。。。。。。。。。。。。。

0

主题

20

帖子

47

积分

新人会员,请认真回复,若恶意回复,直接封号

Rank: 1

积分
47
发表于 2015-9-15 14:30:12 | 显示全部楼层
声音很好听,不知道能不能下载

0

主题

74

帖子

182

积分

乐坛新星

Rank: 2

积分
182

社区QQ达人

发表于 2015-9-16 11:59:50 | 显示全部楼层
看上去不错的样子,不知道能不能下载到,感谢楼主分享。

0

主题

139

帖子

1096

积分

职业歌手

Rank: 3Rank: 3

积分
1096
发表于 2015-9-17 08:15:20 | 显示全部楼层
謝謝分享!必须收藏的啊,真是太好了

0

主题

28

帖子

102

积分

新人会员,请认真回复,若恶意回复,直接封号

Rank: 1

积分
102
发表于 2015-9-21 23:42:14 | 显示全部楼层
多谢楼主分享,收了。。。。。。。。。

0

主题

1131

帖子

1698

积分

当红偶像

Rank: 4

积分
1698
发表于 2015-9-23 22:51:43 | 显示全部楼层
蔡琴2010海上良宵演唱会,谢谢分享!

0

主题

75

帖子

89

积分

新人会员,请认真回复,若恶意回复,直接封号

Rank: 1

积分
89

社区QQ达人

发表于 2015-10-4 21:49:00 | 显示全部楼层
蔡琴2010海上良宵演唱会720P/ MKV/百度+快传

0

主题

114

帖子

185

积分

乐坛新星

Rank: 2

积分
185

社区QQ达人

QQ
发表于 2015-10-19 18:49:28 | 显示全部楼层
值得收藏,,谢谢楼主分享,支持发片。下载了
您需要登录后才可以回帖 登录 | 注册

本版积分规则

快速回复 返回顶部 返回列表