查看: 2310|回复: 40

[演唱会] 魅力中国-宋祖英2009鸟巢夏季音乐会 DTS-MKV1080P/快传+百度

[复制链接]
 成长值: 21784

1793

主题

2165

帖子

11万

积分

音乐总监

Rank: 15Rank: 15Rank: 15Rank: 15Rank: 15

积分
119671

社区QQ达人

发表于 2015-8-17 03:19:48 | 显示全部楼层 |阅读模式

注册会员,获得无损资源下载地址,享受高品质音乐。

您需要 登录 才可以下载或查看,没有帐号?注册

x
本帖最后由 醉耳 于 2015-8-17 03:17 编辑







魅力中国-宋祖英2009鸟巢夏季音乐会.mkv_20150816_080405.046.jpg
魅力中国-宋祖英2009鸟巢夏季音乐会.mkv_20150816_081108.593.jpg
魅力中国-宋祖英2009鸟巢夏季音乐会.mkv_20150816_081013.625.jpg
魅力中国-宋祖英2009鸟巢夏季音乐会.mkv_20150816_080554.156.jpg
魅力中国-宋祖英2009鸟巢夏季音乐会.mkv_20150816_081317.093.jpg
魅力中国-宋祖英2009鸟巢夏季音乐会.mkv_20150816_081359.796.jpg




视频信息

General
Unique ID                      : 221954037872379787926704638694809902347 (0xA6FACAF3BC45043098B7A07E97BB9D0B)
Complete name                  : D:\娱乐\视频\魅力中国-宋祖英2009鸟巢夏季音乐会.mkv
Format                         : Matroska
Format version                 : Version 4 / Version 2
File size                      : 11.2 GiB
Duration                       : 1h 55mn
Overall bit rate               : 13.8 Mbps
Encoded date                   : UTC 2013-10-21 14:23:41
Writing application            : mkvmerge v6.3.0 ('You can't stop me!') built on Jun 28 2013 20:09:41
Writing library                : libebml v1.3.0 + libmatroska v1.4.0
Video
ID                             : 1
Format                         : AVC
Format/Info                    : Advanced Video Codec
Format profile                 :
[email protected]
Format settings, CABAC         : Yes
Format settings, ReFrames      : 4 frames
Codec ID                       : V_MPEG4/ISO/AVC
Duration                       : 1h 55mn
Bit rate                       : 13.2 Mbps
Width                          : 1 920 pixels
Height                         : 1 080 pixels
Display aspect ratio           : 16:9
Frame rate mode                : Constant
Frame rate                     : 25.000 fps
Color space                    : YUV
Chroma subsampling             : 4:2:0
Bit depth                      : 8 bits
Scan type                      : Progressive
Bits/(Pixel*Frame)             : 0.254
Stream size                    : 10.4 GiB (93%)
Title                          : Glamour.China.National.Stadium.Summer.Concert.2009.BluRay.1080p.AC3.x264-DHC
Writing library                : x264 core 135 r2345 f0c1c53
Encoding settings              : cabac=1 / ref=4 / deblock=1:-3:-3 / analyse=0x3:0x113 / me=umh / subme=10 / psy=1 / psy_rd=1.00:0.05 / mixed_ref=1 / me_range=32 / chroma_me=1 / trellis=2 / 8x8dct=1 / cqm=0 / deadzone=21,11 / fast_pskip=0 / chroma_qp_offset=-2 / threads=12 / lookahead_threads=1 / sliced_threads=0 / nr=0 / decimate=1 / interlaced=0 / bluray_compat=0 / constrained_intra=0 / bframes=4 / b_pyramid=2 / b_adapt=2 / b_bias=0 / direct=3 / weightb=1 / open_gop=0 / weightp=2 / keyint=250 / keyint_min=25 / scenecut=40 / intra_refresh=0 / rc=2pass / mbtree=0 / bitrate=13167 / ratetol=1.0 / qcomp=0.70 / qpmin=0 / qpmax=69 / qpstep=4 / cplxblur=20.0 / qblur=0.5 / ip_ratio=1.40 / pb_ratio=1.30 / aq=2:1.00
Language                       : Chinese
Default                        : Yes
Forced                         : No
Audio
ID                             : 2
Format                         : AC-3
Format/Info                    : Audio Coding 3
Mode extension                 : CM (complete main)
Format settings, Endianness    : Big
Codec ID                       : A_AC3
Duration                       : 1h 55mn
Bit rate mode                  : Constant
Bit rate                       : 640 Kbps
Channel(s)                     : 6 channels
Channel positions              : Front: L C R, Side: L R, LFE
Sampling rate                  : 48.0 KHz
Compression mode               : Lossy
Stream size                    : 530 MiB (5%)
Title                          : Glamour.China.National.Stadium.Summer.Concert.2009.BluRay.1080p.AC3.x264-DHC
Language                       : Chinese
Default                        : Yes
Forced                         : No
Menu
00:00:00.000                   : en:凤还巢
00:03:31.320                   : en:茉莉花
00:10:01.400                   : en:好日子
00:12:55.600                   : en:珊瑚颂
00:19:00.360                   : en:辣妹子 (宋祖英+美国Cut Time开拓时光组合)
00:21:31.640                   : en:山歌好比春江水·多谢了 (宋祖英+周杰伦)
00:27:57.480                   : en:菊花台 (周杰伦)
00:33:22.000                   : en:千里之外 (宋祖英+周杰伦)
00:38:33.920                   : en:苗岭飞歌
00:42:01.960                   : en:大地飞歌
00:47:08.480                   : en:爱我中华
00:51:49.680                   : en:我的祖国 (宋祖英+郎朗伴奏)
01:00:01.400                   : en:翻身的日子 (郎朗独奏)
01:01:34.560                   : en:匈牙利狂想曲第二号 (郎朗独奏)
01:05:17.320                   : en:小河淌水
01:12:14.920                   : en:浏阳河
01:16:20.680                   : en:龙船调
01:19:21.960                   : en:感恩
01:27:16.800                   : en:康定情歌 (宋祖英+多明戈+朗朗伴奏)
01:33:09.360                   : en:格兰纳达 (多明戈)
01:36:36.560                   : en:心中只有你 (多明戈)
01:40:36.200                   : en:爱的火焰 (宋祖英+多明戈)
01:46:30.320                   : en:友谊地久天长 (宋祖英+多明戈+周杰伦+朗朗伴奏)

视频简介
《2009魅力·中国鸟巢夏季音乐会》鸟巢世界音乐盛事开篇之作,彰显中国魅力。世界钢琴大师郎朗重回鸟巢为中国民族音乐加油。“英伦”再次袖手,打造中国民歌“经典也流行”。魅力相约三大嘉宾,倾情共创巅峰之和。鸟巢变身全世界最大的音乐殿堂,中国三大交响乐团首次联袂演出!
  “中国北京鸟巢夏季音乐会”将融合了当今最新的科技与人文理念的“鸟巢”变身为世界最大的音乐殿堂,用音乐把中国文化和世界文化连接在一起,创造21世纪中国全新的文化景观。
  “中国北京鸟巢夏季音乐会”使“鸟巢”在后奥运时代继续成为中国体育和文化的标志性场馆,秉承“弘扬中国文化、打造世界品质”的主旨,把中国文化、中国民歌推向世界。
  “中国北京鸟巢夏季音乐会”将成为北京的年度文化盛事。后奥运时代的“鸟巢”,用音乐温暖世界,用歌声感动世界。让我们高扬文化的旗帜给中国和世界以信心!
  “中国北京鸟巢夏季音乐会”的首场演出-2009《魅力·中国》是一个超大型广场音乐会,以当代中国顶级演出品牌隆重推出,倾力打造中国文化创意产业长效品牌。
  万众期待,后奥运时代鸟巢世界顶级乐坛盛事。“2009·魅力·中国”演唱会,世界乐坛最强实力艺术家联袂演出。中国最具实力民歌天后-宋祖英,华人乐坛流行天皇-周杰伦,世界乐坛钢琴巨星-郎朗,世界著名三大男高音之一-多明戈。指挥-余隆,乐团-中国爱乐乐团、上海交响乐团、广州交响乐团,表演-中国歌剧舞剧院歌剧团、中国广播艺术团合唱团。
主持人-杨澜、朱军。
演唱曲目:
序《凤还巢》
作曲、编配:阮昆申
01 《茉莉花》
中国江苏民歌
编配:郝维亚 演唱:宋祖英
02 《好日子》
作词:车行 作曲:李昕 编配:罗新民 演唱:宋祖英
03 《珊瑚颂》
作词:赵忠等 作曲:胡仕平\王锡仁 编配:杜鸣心 演唱:宋祖英
04 《辣妹子》
作词:佘致迪 作曲:徐沛东 编配:郝松
演唱:宋祖英\Cut Time开拓时光组合(美国)
05 《山歌好比春江水·多谢了》
作词:乔羽 作曲:雷振邦 编配:马久越 演唱:宋祖英\周杰伦(中国台湾)
06 《菊花台》
作词:方文山(中国台湾) 作曲:周杰伦(中国台湾) 编配:邹野
演唱:周杰伦(中国台湾)
07 《千里之外》
作词:方文山(中国台湾) 作曲:周杰伦(中国台湾) 编配:杨一博
演唱:宋祖英\周杰伦(中国台湾)
08 《苗岭飞歌》
作词:胡锐 作曲:罗秀英\郑寒风 编配:龙伟华 演唱:宋祖英
09 《大地飞歌》
作词:郑南 作曲:徐沛东 编配:沈丹 演唱:宋祖英
10 《爱我中华》
作词:乔羽 作曲:徐沛东 编配:沈丹 演唱:宋祖英
11 《我的祖国》
作词:乔羽 作曲:刘炽 编配:邹野 演唱:宋祖英 钢琴演奏:郎朗
12 《翻身的日子》
作曲:朱践耳 钢琴独奏:郎朗
13 《匈牙利狂想曲第二号》
作曲:弗朗兹·李斯特(匈牙利) 钢琴独奏:郎朗
14 《小河淌水》
中国云南民歌
填词:王晓岭 编配:马久越 演唱:宋祖英
15 《浏阳河》
作词:徐叔华 作曲:唐璧光 编配:孟可\丁纪 演唱:宋祖英
16 《龙船调》
中国湖北民歌
编配:龙伟华 演唱:宋祖英
17 《感恩》
作词:王晓岭 作曲、编配:孟勇 演唱:宋祖英
18 《康定情歌》
中国四川民歌
钢琴编配:杨一博 演唱:宋祖英\普拉西多·多明戈(西班牙) 钢琴演奏:郎朗
19 《格兰纳达》
西班牙民歌
词曲:阿古斯丁·拉腊(墨西哥) 编配:杰克·海斯(美国)
演唱:普拉西多·多明戈(西班牙)
20 《心中只有你》
歌剧《微笑的大地》选段
作词:弗里茨·略纳-拜达(奥地利)\路德维格·海泽尔(奥地利)
作曲:弗朗茨·莱哈尔(奥地利)
演唱:普拉西多·多明戈(西班牙)
21 《爱的火焰》
作词:宋小明\袁元 英文作词:普拉西多·多明戈(西班牙)
作曲:卞留念\克劳斯·巴德尔特(德国) 编配:卞留念\赵兆
演唱:宋祖英\普拉西多·多明戈(西班牙)
结尾曲 《友谊地久天长》
苏格兰民歌
作词:罗伯特·彭斯(苏格兰) 译赔:邓映易 编配:钱琦
演唱:宋祖英\普拉西多·多明戈(西班牙)\周杰伦(中国台湾)
钢琴演奏:郎朗

资源来自网络  醉耳整理上传
如喜欢请支持正版!
如本人所发资源有被和谐失效的
请用站内信告知我会尽快补档
解压密码:www.cdbao.net
下载地址:
回复后:帖子靛青色部分为快传地址,
蓝底色为百度云盘下载地址。

游客,如果您要查看本帖隐藏内容请回复










上一篇:中国好声音第四季第5期:视频无音效/MKV/1080P/3.64G
下一篇:蔡琴2010海上良宵演唱会720P/ MKV/百度+快传
不追新 不赶潮 只爱经典好声音

0

主题

81

帖子

40

积分

新人会员,请认真回复,若恶意回复,直接封号

Rank: 1

积分
40
发表于 2015-8-23 19:10:00 | 显示全部楼层
好人一生平安好人一生平安好人一生平安好人一生平安好人一生平安

0

主题

107

帖子

169

积分

乐坛新星

Rank: 2

积分
169
发表于 2015-8-23 21:51:44 | 显示全部楼层
谢谢版主吧,看看怎么样,应该还不错吧。

0

主题

27

帖子

105

积分

新人会员,请认真回复,若恶意回复,直接封号

Rank: 1

积分
105
发表于 2015-8-24 16:57:05 | 显示全部楼层
顶起,我顶我顶!!!!!!!!

0

主题

107

帖子

169

积分

乐坛新星

Rank: 2

积分
169
发表于 2015-8-24 19:19:57 | 显示全部楼层
楼主,怎么回事儿?好像地址链接已经失效了。

0

主题

156

帖子

136

积分

新人会员,请认真回复,若恶意回复,直接封号

Rank: 1

积分
136
发表于 2015-9-9 09:02:33 | 显示全部楼层
好像地址链接已经失效了!!!!!!!!!!!!!!!!

0

主题

57

帖子

163

积分

乐坛新星

Rank: 2

积分
163

社区QQ达人

发表于 2015-9-20 10:50:30 | 显示全部楼层
好好,很好,拿下来。。很喜欢

0

主题

28

帖子

102

积分

新人会员,请认真回复,若恶意回复,直接封号

Rank: 1

积分
102
发表于 2015-9-21 23:40:07 | 显示全部楼层
多谢楼主分享!收了。。。。。。。。。

0

主题

45

帖子

129

积分

新人会员,请认真回复,若恶意回复,直接封号

Rank: 1

积分
129

社区QQ达人

发表于 2015-9-28 11:41:48 | 显示全部楼层
dafsgfdgfdgfdsfdsfdsf eeeeeeeeeeeeeeeeeeeeeeeeeeeeeeee

0

主题

259

帖子

257

积分

乐坛新星

Rank: 2

积分
257
发表于 2015-10-1 22:13:28 | 显示全部楼层
真得非常不错,谢谢上传超清演唱会

0

主题

237

帖子

1228

积分

职业歌手

Rank: 3Rank: 3

积分
1228

社区QQ达人

发表于 2015-10-4 14:10:57 | 显示全部楼层
喜欢这些曲目,谢谢您的上传。

0

主题

237

帖子

1228

积分

职业歌手

Rank: 3Rank: 3

积分
1228

社区QQ达人

发表于 2015-10-4 14:12:14 | 显示全部楼层
喜欢这些曲目,谢谢您的上传。

0

主题

204

帖子

294

积分

乐坛新星

Rank: 2

积分
294
发表于 2015-10-8 16:22:38 | 显示全部楼层
感谢楼主分享,下来看看,辛苦了

0

主题

32

帖子

112

积分

新人会员,请认真回复,若恶意回复,直接封号

Rank: 1

积分
112
发表于 2015-10-11 19:17:51 | 显示全部楼层
多谢楼主分享,下来听听到底啥效果
您需要登录后才可以回帖 登录 | 注册

本版积分规则

快速回复 返回顶部 返回列表