查看: 2269|回复: 75

原抓:韩宝仪《柔情典范》黑胶2CD/WAV/百度

[复制链接]

416

主题

783

帖子

4万

积分

天王巨星

Rank: 7Rank: 7Rank: 7

积分
42135

社区QQ达人灌水勋章分享勋章

发表于 2015-8-6 18:53:50 | 显示全部楼层 |阅读模式

注册会员,获得无损资源下载地址,享受高品质音乐。

您需要 登录 才可以下载或查看,没有帐号?注册

x
本帖最后由 微笑面对 于 2015-8-12 13:46 编辑

COVER_副本.jpg
BACK_副本.jpg
CD_副本.jpg

专辑名称:《韩宝仪 柔情典范》黑胶2CD
专辑艺人:韩宝仪
ISRC:CN-F21-08-416-00/A.J6
出版发行:广州市新时代影音公司
资源格式:WAV


专辑介绍
《韩宝仪:柔情典范》路过岁月,
没有足迹,路过春天,流失了花期,
挥洒深秋的记忆向天际,
伸手拾起你粉红色的歌声,
染霜的季节,依然美丽,

重温金曲:
你潇洒我漂亮,粉红色的回忆,
昨日情昨日梦,心心相印。

HD-Mastering黑胶CD是在黑胶CD的基础上进行的一次技术革新和提升,
在保证黑胶CD原有的声音品质和聆听效果的同时进行了相应的技术创新。
融入了全新的数字概念,
将以前单纯的模拟开盘带文件拓展到数字的WAV双轨甚至多轨数字无损音频文件。

真正实现无压缩、无信号损失的声音保真度,
再以数字音频的格式进行硬盘保存后,
直接用于HD-Mastering黑胶CD的母盘制造,
最终确保了声音的品质和效果。

曲目
DISC 1 
01 粉红色的回忆 
02 你潇洒 我漂亮 
03 无奈的思绪 
04 想把情人留 
05 想要潇洒离开 
06 一去不回头 
07 旧情绵绵 
08 错误的恋曲 
09 离别前夕 
10 不能不想你 
11 没有归宿的落花 
12 为何逃避我 
13 昨日情 昨日梦 
14 爱的苦酒 

DISC 2 
01 无言的温柔 
02 心心相印 
03 我心若玫瑰 
04 望月怕团圆 
05 错误的爱 
06 痴情的爱 
07 后悔 
08 爱情像流星  
09 难忘的梦 
10 谁敢相信你 
11 望着天空的女孩 
12 让我悄悄离去 
13 无奈的分手 
14 偶尔还会想起 



资源链接:
游客,如果您要查看本帖隐藏内容请回复


1.png
2.png

评分

参与人数 1CD +80 收起 理由
CDbao + 80 感谢分享资源,CD包因你而精彩.

查看全部评分




上一篇:谭咏麟《'84演唱会 2CD》WAV+LOG/整轨/百度
下一篇:陈奕迅全新粤语专辑《准备中》2015/WAV/百度/分轨

416

主题

783

帖子

4万

积分

天王巨星

Rank: 7Rank: 7Rank: 7

积分
42135

社区QQ达人灌水勋章分享勋章

 楼主| 发表于 2015-8-6 18:55:08 | 显示全部楼层
Exact Audio Copy V1.0 beta 3 from 29. August 2011

EAC 抓取日志文件从4. 八月 2015, 21:24

韩宝仪 / 未知标题

使用驱动器  :HL-DT-STDVDROM DH18NS40   Adapter: 2  ID: 0

读取模式 : 快速

读取偏移校正:               : 0
读取 Lead-In 和 Lead-Out : 否
用静音填充抓取中丢失偏移的采样       : 是
去除首尾静音块               : 否
在CRC 计算中使用了空样本       : 是
已用接口                  : Win NT 及 2000 本地 Win32 接口
间隙处理                  : 追加到上一曲目

所用输出模式: : 内部 WAV 函数
样本格式    : 44.100 Hz; 16 Bit; 立体声


已抓取 CD 的 TOC

     音轨 |    起始    |    长度    |  起始扇区  |  结束扇区  
    --------------------------------------------
      1 |  0:00.00 |  3:44.09 |      0 |  16808
      2 |  3:44.09 |  3:45.02 |  16809 |  33685
      3 |  7:29.11 |  3:43.38 |  33686 |  50448
      4 | 11:12.49 |  3:23.27 |  50449 |  65700
      5 | 14:36.01 |  3:27.37 |  65701 |  81262
      6 | 18:03.38 |  2:34.16 |  81263 |  92828
      7 | 20:37.54 |  3:36.23 |  92829 | 109051
      8 | 24:14.02 |  3:47.34 | 109052 | 126110
      9 | 28:01.36 |  3:55.11 | 126111 | 143746
     10 | 31:56.47 |  2:57.54 | 143747 | 157075
     11 | 34:54.26 |  4:13.28 | 157076 | 176078
     12 | 39:07.54 |  2:43.68 | 176079 | 188371
     13 | 41:51.47 |  3:32.63 | 188372 | 204334
     14 | 45:24.35 |  4:09.03 | 204335 | 223012


音轨  1

     文件名 F:\新建文件夹\01 音轨.wav

     前间隙长度  0:00:02.00

     峰值电平 100.0 %
     抓取速度 1.4 X
     复制 CRC 77E3B7D7
     复制成功

音轨  2

     文件名 F:\新建文件夹\02 音轨.wav

     前间隙长度  0:00:02.00

     峰值电平 100.0 %
     抓取速度 1.5 X
     复制 CRC A4F35EE0
     复制成功

音轨  3

     文件名 F:\新建文件夹\03 音轨.wav

     前间隙长度  0:00:02.00

     峰值电平 100.0 %
     抓取速度 1.6 X
     复制 CRC 6A697B30
     复制成功

音轨  4

     文件名 F:\新建文件夹\04 音轨.wav

     前间隙长度  0:00:02.00

     峰值电平 100.0 %
     抓取速度 1.7 X
     复制 CRC A3F340C6
     复制成功

音轨  5

     文件名 F:\新建文件夹\05 音轨.wav

     前间隙长度  0:00:02.00

     峰值电平 100.0 %
     抓取速度 1.8 X
     复制 CRC 8477D4C8
     复制成功

音轨  6

     文件名 F:\新建文件夹\06 音轨.wav

     前间隙长度  0:00:02.00

     峰值电平 100.0 %
     抓取速度 1.8 X
     复制 CRC 268B00BE
     复制成功

音轨  7

     文件名 F:\新建文件夹\07 音轨.wav

     前间隙长度  0:00:02.00

     峰值电平 100.0 %
     抓取速度 2.2 X
     复制 CRC 85CBC50C
     复制成功

音轨  8

     文件名 F:\新建文件夹\08 音轨.wav

     前间隙长度  0:00:02.00

     峰值电平 100.0 %
     抓取速度 2.3 X
     复制 CRC DB861437
     复制成功

音轨  9

     文件名 F:\新建文件夹\09 音轨.wav

     前间隙长度  0:00:02.00

     峰值电平 100.0 %
     抓取速度 2.3 X
     复制 CRC C49CC3F3
     复制成功

音轨 10

     文件名 F:\新建文件夹\10 音轨.wav

     前间隙长度  0:00:02.00

     峰值电平 100.0 %
     抓取速度 2.3 X
     复制 CRC C28701AB
     复制成功

音轨 11

     文件名 F:\新建文件夹\11 音轨.wav

     前间隙长度  0:00:02.00

     峰值电平 100.0 %
     抓取速度 2.5 X
     复制 CRC 21EDB1C0
     复制成功

音轨 12

     文件名 F:\新建文件夹\12 音轨.wav

     前间隙长度  0:00:02.00

     峰值电平 100.0 %
     抓取速度 2.3 X
     复制 CRC 34B0B276
     复制成功

音轨 13

     文件名 F:\新建文件夹\13 音轨.wav

     前间隙长度  0:00:02.00

     峰值电平 100.0 %
     抓取速度 2.5 X
     复制 CRC A5170DE8
     复制成功

音轨 14

     文件名 F:\新建文件夹\14 音轨.wav

     前间隙长度  0:00:02.00

     峰值电平 100.0 %
     抓取速度 2.6 X
     复制 CRC 415EF387
     复制成功

没有错误发生

状态报告结尾

==== 记录校验日志 803920187F34FF96F80FA273DD0B5556C902AD2B9714969A8303C91AFCF83F47 ====


416

主题

783

帖子

4万

积分

天王巨星

Rank: 7Rank: 7Rank: 7

积分
42135

社区QQ达人灌水勋章分享勋章

 楼主| 发表于 2015-8-6 18:56:03 | 显示全部楼层
Exact Audio Copy V1.0 beta 3 from 29. August 2011


EAC 抓取日志文件从4. 八月 2015, 21:53


韩宝仪 / 未知标题


使用驱动器  :HL-DT-STDVDROM DH18NS40   Adapter: 2  ID: 0


读取模式 : 快速


读取偏移校正:               : 0
读取 Lead-In 和 Lead-Out : 否
用静音填充抓取中丢失偏移的采样       : 是
去除首尾静音块               : 否
在CRC 计算中使用了空样本       : 是
已用接口                  : Win NT 及 2000 本地 Win32 接口
间隙处理                  : 没检测到,因此追加到上一曲目


所用输出模式: : 内部 WAV 函数
样本格式    : 44.100 Hz; 16 Bit; 立体声




已抓取 CD 的 TOC


     音轨 |    起始    |    长度    |  起始扇区  |  结束扇区  
    --------------------------------------------
      1 |  0:00.00 |  3:17.32 |      0 |  14806
      2 |  3:17.32 |  3:39.56 |  14807 |  31287
      3 |  6:57.13 |  2:55.12 |  31288 |  44424
      4 |  9:52.25 |  2:50.37 |  44425 |  57211
      5 | 12:42.62 |  3:34.01 |  57212 |  73262
      6 | 16:16.63 |  3:37.02 |  73263 |  89539
      7 | 19:53.65 |  3:32.59 |  89540 | 105498
      8 | 23:26.49 |  3:13.62 | 105499 | 120035
      9 | 26:40.36 |  4:01.52 | 120036 | 138162
     10 | 30:42.13 |  2:29.24 | 138163 | 149361
     11 | 33:11.37 |  2:49.39 | 149362 | 162075
     12 | 36:01.01 |  3:13.44 | 162076 | 176594
     13 | 39:14.45 |  3:28.21 | 176595 | 192215
     14 | 42:42.66 |  3:40.45 | 192216 | 208760




音轨  1


     文件名 F:\新建文件夹\01 音轨.wav


     峰值电平 100.0 %
     抓取速度 1.4 X
     复制 CRC 2FA0DC77
     复制成功


音轨  2


     文件名 F:\新建文件夹\02 音轨.wav


     峰值电平 100.0 %
     抓取速度 1.5 X
     复制 CRC 74D70085
     复制成功


音轨  3


     文件名 F:\新建文件夹\03 音轨.wav


     峰值电平 100.0 %
     抓取速度 1.5 X
     复制 CRC EA7EB134
     复制成功


音轨  4


     文件名 F:\新建文件夹\04 音轨.wav


     峰值电平 100.0 %
     抓取速度 1.6 X
     复制 CRC D8AFA149
     复制成功


音轨  5


     文件名 F:\新建文件夹\05 音轨.wav


     峰值电平 100.0 %
     抓取速度 1.8 X
     复制 CRC CC260179
     复制成功


音轨  6


     文件名 F:\新建文件夹\06 音轨.wav


     峰值电平 100.0 %
     抓取速度 1.9 X
     复制 CRC 3B214022
     复制成功


音轨  7


     文件名 F:\新建文件夹\07 音轨.wav


     峰值电平 100.0 %
     抓取速度 2.1 X
     复制 CRC 661D22E5
     复制成功


音轨  8


     文件名 F:\新建文件夹\08 音轨.wav


     峰值电平 100.0 %
     抓取速度 2.2 X
     复制 CRC 13322F34
     复制成功


音轨  9


     文件名 F:\新建文件夹\09 音轨.wav


     峰值电平 100.0 %
     抓取速度 2.3 X
     复制 CRC 359ACE4F
     复制成功


音轨 10


     文件名 F:\新建文件夹\10 音轨.wav


     峰值电平 100.0 %
     抓取速度 2.1 X
     复制 CRC EBD76B90
     复制成功


音轨 11


     文件名 F:\新建文件夹\11 音轨.wav


     峰值电平 100.0 %
     抓取速度 2.2 X
     复制 CRC AD3E1C23
     复制成功


音轨 12


     文件名 F:\新建文件夹\12 音轨.wav


     峰值电平 100.0 %
     抓取速度 2.3 X
     复制 CRC 750E9879
     复制成功


音轨 13


     文件名 F:\新建文件夹\13 音轨.wav


     峰值电平 100.0 %
     抓取速度 2.4 X
     复制 CRC 7DC2627C
     复制成功


音轨 14


     文件名 F:\新建文件夹\14 音轨.wav


     峰值电平 100.0 %
     抓取速度 2.5 X
     复制 CRC CFF3454F
     复制成功


没有错误发生


状态报告结尾


==== 记录校验日志 0E6A94F4EADDF122A290B5452C36E291EA4FC87A15308DC664440B3BD9437C05 ====


416

主题

783

帖子

4万

积分

天王巨星

Rank: 7Rank: 7Rank: 7

积分
42135

社区QQ达人灌水勋章分享勋章

 楼主| 发表于 2015-8-6 18:57:09 | 显示全部楼层


1

主题

77

帖子

587

积分

职业歌手

Rank: 3Rank: 3

积分
587

社区QQ达人

发表于 2015-8-6 21:08:01 | 显示全部楼层
非常不错的CD,韩宝仪的歌曲,好听

0

主题

804

帖子

1036

积分

职业歌手

Rank: 3Rank: 3

积分
1036

社区QQ达人

发表于 2015-8-7 04:48:06 | 显示全部楼层
超级喜欢,太经典了,谢谢楼主好人

0

主题

75

帖子

356

积分

乐坛新星

Rank: 2

积分
356

社区QQ达人

发表于 2015-8-7 05:58:57 | 显示全部楼层
非常好听的经典歌曲,谢谢分享。

0

主题

75

帖子

356

积分

乐坛新星

Rank: 2

积分
356

社区QQ达人

发表于 2015-8-8 06:25:47 | 显示全部楼层
流行教主我买了怎样下载,请指导,谢谢

0

主题

159

帖子

185

积分

乐坛新星

Rank: 2

积分
185
发表于 2015-8-8 09:22:14 | 显示全部楼层
500?有点大贵,买不起啊

1

主题

23

帖子

57

积分

新人会员,请认真回复,若恶意回复,直接封号

Rank: 1

积分
57

社区QQ达人

发表于 2015-8-8 09:30:23 | 显示全部楼层
500 只能看看了啊   呵呵!!!!!!!!!!!!!

416

主题

783

帖子

4万

积分

天王巨星

Rank: 7Rank: 7Rank: 7

积分
42135

社区QQ达人灌水勋章分享勋章

 楼主| 发表于 2015-8-8 20:02:47 | 显示全部楼层

[size=13.333333969116211px]可以啊,复制密码,然后抹蓝前面的链接,点击打开

0

主题

75

帖子

356

积分

乐坛新星

Rank: 2

积分
356

社区QQ达人

发表于 2015-8-8 21:20:51 | 显示全部楼层
谢谢流行教主指导,可以下载。

0

主题

50

帖子

148

积分

新人会员,请认真回复,若恶意回复,直接封号

Rank: 1

积分
148

社区QQ达人

发表于 2015-8-13 02:29:47 | 显示全部楼层
你就是我心里的宝,珍惜和你的分分秒秒

0

主题

203

帖子

777

积分

职业歌手

Rank: 3Rank: 3

积分
777
发表于 2015-8-13 05:34:29 | 显示全部楼层
感谢楼主无私的奉献辛苦了

0

主题

298

帖子

318

积分

乐坛新星

Rank: 2

积分
318

社区QQ达人

发表于 2015-8-14 05:35:44 | 显示全部楼层
您需要登录后才可以回帖 登录 | 注册

本版积分规则

快速回复 返回顶部 返回列表