查看: 4575|回复: 92

Pitbull《Dale》2015/FLAC整轨/BD

[复制链接]

13

主题

35

帖子

945

积分

职业歌手

Rank: 3Rank: 3

积分
945
发表于 2015-8-5 05:39:21 | 显示全部楼层 |阅读模式

注册会员,获得无损资源下载地址,享受高品质音乐。

您需要 登录 才可以下载或查看,没有帐号?注册

x
本帖最后由 tomcat_x 于 2015-8-5 06:41 编辑



专辑名称:Dale
专辑艺人:Pitbull
发行公司:Sony Latin
资源格式:FLAC整轨
发行时间:2015-07-17
发行地区:西班牙
音乐风格:Latino Pop
曲目数量:12首
资源大小:340M

Pitbull原名Armando Perez Luther Campbell,作为一个古巴裔的美国mc,pitbull还是还是坚持用英文Rap ,最初他被邀请他出现在单曲”Lollipop” 中. 这让pitbull被Diaz Brothers经纪人团队发现,后来一个Pitbull的freestyle出现在Lil Jon在2002的白金唱片Kings of Crunk中,2003年oye版本还出现在速度与激情2的原声中。
《Dale》是最新出版的专辑,以下转自国外网站:
Coming five years after his last Spanish-language album, Armando, Pitbull's Dale rounds up some stray tracks, offers a whole bunch of new ones, and adds excitement by cramming the guest list with everyone from Ricky Martin to Sensato. It's the Pitbull album that feels most like a party with all these friends dropping in and out, and this wild night out peaks toward the end with the highlights running from the club-worthy "Baddest Girl in Town" (the first clue that this album isn't all-Spanish like Armando) to the '80s-flavored, Human League-quoting "No Puedo Más." ——by David Jeffries.





曲目列表:
01) Piensas (Dile La Verdad) (feat. Gente De Zona) (3:47)
02) Como Yo Le Doy (feat. Don Miguelo) (4:23)
03) El Taxi (feat. Sensato & Osmani Garcia) (4:10)
04) Yo Quiero (Si Tu Te Enamoras) (feat. Gente De Zona) (3:28)
05) El Party (feat. Micha) (3:55)
06) Mami Mami (feat. Fuego) (3:32)
07) Baddest Girl In Town (feat. Mohombi & Wisin) (3:04)
08) Chi Chi Bon Bon (feat. Osmani Garcia) (3:37)
09) Haciendo Ruido (feat. Ricky Martin) (3:09)
10) Hoy Se Bebe (feat. Farruko) (3:36)
11) No Puedo Mas (feat. Yandel) (3:46)
12) Que Lo Que (feat. El Chevo, Papayo & Sensato) (3:43)

专辑试听


技术信息
Exact Audio Copy V1.0 beta 6 from 9. April 2015
EAC extraction logfile from 2. August 2015, 15:55
Pitbull / Dale
Used drive  : hp      CDDVDW SH-216DB   Adapter: 1  ID: 0
Read mode               : Secure
Utilize accurate stream : Yes
Defeat audio cache      : Yes
Make use of C2 pointers : No
Read offset correction                      : 6
Overread into Lead-In and Lead-Out          : No
Fill up missing offset samples with silence : Yes
Delete leading and trailing silent blocks   : No
Null samples used in CRC calculations       : Yes
Used interface                              : Native Win32 interface for Win NT & 2000
Used output format : Internal WAV Routines
Sample format      : 44.100 Hz; 16 Bit; Stereo

TOC of the extracted CD

     Track |   Start  |  Length  | Start sector | End sector
    ---------------------------------------------------------
        1  |  0:00.00 |  3:47.02 |         0    |    17026   
        2  |  3:47.02 |  4:23.26 |     17027    |    36777   
        3  |  8:10.28 |  4:10.15 |     36778    |    55542   
        4  | 12:20.43 |  3:28.54 |     55543    |    71196   
        5  | 15:49.22 |  3:55.73 |     71197    |    88894   
        6  | 19:45.20 |  3:32.03 |     88895    |   104797   
        7  | 23:17.23 |  3:04.41 |    104798    |   118638   
        8  | 26:21.64 |  3:37.46 |    118639    |   134959   
        9  | 29:59.35 |  3:09.55 |    134960    |   149189   
       10  | 33:09.15 |  3:36.65 |    149190    |   165454   
       11  | 36:46.05 |  3:46.09 |    165455    |   182413   
       12  | 40:32.14 |  3:43.72 |    182414    |   199210   


Range status and errors

Selected range

     Filename E:\POST\Pitbull - Dale (EAC)\Pitbull - Dale.wav

     Peak level 100.0 %
     Extraction speed 6.5 X
     Range quality 100.0 %
     Test CRC 414C860C
     Copy CRC 414C860C
     Copy OK

No errors occurred
AccurateRip summary
Track  1  not present in database
Track  2  not present in database
Track  3  not present in database
Track  4  not present in database
Track  5  not present in database
Track  6  not present in database
Track  7  not present in database
Track  8  not present in database
Track  9  not present in database
Track 10  not present in database
Track 11  not present in database
Track 12  not present in database

None of the tracks are present in the AccurateRip database
End of status report

auCDtectTaskManager


下载链接

游客,如果您要查看本帖隐藏内容请回复

解压码:www.cdbao.net






上一篇:意迪斯科电子合成流行:Koto《2LP》2014-2015/FLAC/BD+115
下一篇:原碟自抓:Whitney Houston-《The Ultimate Collection》WAV/整轨/度盘

0

主题

1674

帖子

2201

积分

当红偶像

Rank: 4

积分
2201

社区QQ达人

发表于 2015-8-5 11:23:05 | 显示全部楼层

不错的   超喜欢他的音乐    来一个

0

主题

127

帖子

401

积分

乐坛新星

Rank: 2

积分
401

社区QQ达人

发表于 2015-8-5 17:02:00 | 显示全部楼层
Just one for the day. Thks for sharing this

0

主题

241

帖子

599

积分

职业歌手

Rank: 3Rank: 3

积分
599

社区QQ达人

发表于 2015-8-5 19:20:20 | 显示全部楼层
熟悉的南美中毒节奏,非常喜欢,感谢楼主分享!

0

主题

359

帖子

441

积分

乐坛新星

Rank: 2

积分
441

社区QQ达人

发表于 2015-8-5 19:45:42 | 显示全部楼层
西班牙音乐不错,值得一听。

0

主题

65

帖子

91

积分

新人会员,请认真回复,若恶意回复,直接封号

Rank: 1

积分
91
发表于 2015-8-6 15:33:34 | 显示全部楼层


不错的   超喜欢他的音乐    来一个

0

主题

1750

帖子

2509

积分

当红偶像

Rank: 4

积分
2509
发表于 2015-8-6 17:40:02 | 显示全部楼层
谢谢楼主分享!新专辑必须抽空听一下……

0

主题

36

帖子

146

积分

新人会员,请认真回复,若恶意回复,直接封号

Rank: 1

积分
146
发表于 2015-8-9 09:36:09 | 显示全部楼层

感谢搂着分享,好人一僧平安啊!
integral

0

主题

52

帖子

439

积分

乐坛新星

Rank: 2

积分
439

社区QQ达人

发表于 2015-8-9 10:50:52 | 显示全部楼层
谢谢楼主~!!从last night开始就喜欢pitpull大叔了·!!!

3

主题

151

帖子

88

积分

新人会员,请认真回复,若恶意回复,直接封号

Rank: 1

积分
88

社区QQ达人

发表于 2015-8-9 14:19:55 | 显示全部楼层
本帖最后由 qizhongshuai 于 2015-9-13 14:28 编辑

这个带劲阿!好听的音乐 下来仔细听听!!~~

0

主题

403

帖子

499

积分

职业歌手

Rank: 3Rank: 3

积分
499

社区QQ达人

发表于 2015-8-9 14:47:41 | 显示全部楼层
新专辑啊 支持

2

主题

783

帖子

971

积分

职业歌手

Rank: 3Rank: 3

积分
971

社区QQ达人

发表于 2015-8-9 19:24:29 | 显示全部楼层
听过几首歌,真的很不错,我觉得是一个好歌手

0

主题

609

帖子

801

积分

职业歌手

Rank: 3Rank: 3

积分
801
发表于 2015-8-10 15:06:02 | 显示全部楼层
这个带劲阿!好听的音乐 下来仔细听听!!~~

0

主题

1268

帖子

1273

积分

职业歌手

Rank: 3Rank: 3

积分
1273
发表于 2015-8-10 17:50:19 | 显示全部楼层
不错! 很喜欢他的舞曲

10

主题

228

帖子

3166

积分

当红偶像

Rank: 4

积分
3166

社区QQ达人

发表于 2015-8-10 18:11:55 | 显示全部楼层
他出的也太快了吧,上张还没有过瘾~又发行一张~
您需要登录后才可以回帖 登录 | 注册

本版积分规则

快速回复 返回顶部 返回列表