查看: 4623|回复: 171

原抓:Beyond《光辉30年》德国黑胶2CD[WAV+CUE]

  [复制链接]

415

主题

781

帖子

4万

积分

天王巨星

Rank: 7Rank: 7Rank: 7

积分
41885

社区QQ达人灌水勋章分享勋章

发表于 2015-8-2 21:19:01 | 显示全部楼层 |阅读模式

注册会员,获得无损资源下载地址,享受高品质音乐。

您需要 登录 才可以下载或查看,没有帐号?注册

x
本帖最后由 微笑面对 于 2015-8-12 13:51 编辑

COVER.jpg
BACK.jpg
CD.jpg

专辑名称:《光辉30年》德国黑胶2CD
专辑艺人:beyond
出版发行:广州市新时代影音公司
ISRC编码:CN-F21-08-558-00/A.J6
资源格式:WAV+CUE

专辑介绍
我们总可以在Beyond的歌里,
找到一种不服输的精神和对人间的关怀之情,
所以说他们的歌,不仅仅只是一种音乐,更是一种对生活的信仰。
曲目
DISC1:
01 光辉岁月 Glorious Days 459
02 长城 Great Wall 523
03 大地 Mother Land 420
04 冷雨夜 Cold Raining Night 502
05 海阔天空 As Boundless as the Sea and Sky 451
06 爸爸妈妈 Dad and Mom 341
07 报答一生 Pay Back All My Life 355
08 不再犹豫 No Longer Hesitate 411
09 Amani Amani 448
10 谁伴我闯荡 Who Will Wander with Me 409
11 农民 Peasants 516
12 情人 Lover 514
13 逝去日子 The Passing Days 350
14 喜欢你 Fond of You 434
15 阿拉伯跳舞女郎 Arabian Dancing Girl 349

DISC2:
01 真的爱你 I Honestly Love You 437
02 俾面派对 Join the Party If You Like 427
03 灰色轨迹 Grey Track 525
04 交织千个心 Interlacing Hearts 548
05 再见理想 Ideal And Me 453
06 无悔这一生 No Regret All My Life 359
07 无尽空虚 Endless Emptiness 435
08 旧日的足迹 Yesterday's Footprints 519
09 愿我能 I Wish I Can 420
10 岁月无声 Times in Silence 445
11 曾经拥有 The Way We Were 433
12 无声的告别 Voiceless Goodbye 440
13 怀念你 Missing You 408
14 孤单一吻 One Lonely Kiss 449
15 昔日舞曲 Dances in the Past 421



游客,如果您要查看本帖隐藏内容请回复
 


1.png
2.png



上一篇:群星《花千骨 电视原声带》FLAC/百度
下一篇:大庆小芳《相伴一生》2015[WAV/CUE/百度]

415

主题

781

帖子

4万

积分

天王巨星

Rank: 7Rank: 7Rank: 7

积分
41885

社区QQ达人灌水勋章分享勋章

 楼主| 发表于 2015-8-2 21:20:11 | 显示全部楼层
本帖最后由 微笑面对 于 2015-8-2 21:29 编辑
Exact Audio Copy V1.0 beta 3 from 29. August 2011

EAC 抓取日志文件从1. 八月 2015, 18:27

Beyond / 光辉30年

使用驱动器  :HL-DT-STDVDROM DH18NS40   Adapter: 2  ID: 0

读取模式 : 快速

读取偏移校正:               : 0
读取 Lead-In 和 Lead-Out : 否
用静音填充抓取中丢失偏移的采样       : 是
去除首尾静音块               : 否
在CRC 计算中使用了空样本       : 是
已用接口                  : Win NT 及 2000 本地 Win32 接口

所用输出模式: : 内部 WAV 函数
样本格式    : 44.100 Hz; 16 Bit; 立体声


已抓取 CD 的 TOC

     音轨 |    起始    |    长度    |  起始扇区  |  结束扇区  
    --------------------------------------------
      1 |  0:00.00 |  4:56.44 |      0 |  22243
      2 |  4:56.44 |  4:49.12 |  22244 |  43930
      3 |  9:45.56 |  4:19.23 |  43931 |  63378
      4 | 14:05.04 |  4:58.44 |  63379 |  85772
      5 | 19:03.48 |  5:25.13 |  85773 | 110160
      6 | 24:28.61 |  3:39.25 | 110161 | 126610
      7 | 28:08.11 |  3:52.49 | 126611 | 144059
      8 | 32:00.60 |  4:09.42 | 144060 | 162776
      9 | 36:10.27 |  4:48.08 | 162777 | 184384
     10 | 40:58.35 |  4:11.62 | 184385 | 203271
     11 | 45:10.22 |  5:12.44 | 203272 | 226715
     12 | 50:22.66 |  5:12.26 | 226716 | 250141
     13 | 55:35.17 |  3:49.19 | 250142 | 267335
     14 | 59:24.36 |  4:30.29 | 267336 | 287614
     15 | 63:54.65 |  3:49.41 | 287615 | 304830


范围状态及错误

已选择范围

     文件名 F:\Beyond - 光辉30年CD1.wav


     峰值电平 85.7 %
     抓取速度 6.4 X
     复制 CRC ED27E670
     复制成功

没有错误发生

状态报告结尾



415

主题

781

帖子

4万

积分

天王巨星

Rank: 7Rank: 7Rank: 7

积分
41885

社区QQ达人灌水勋章分享勋章

 楼主| 发表于 2015-8-2 21:21:41 | 显示全部楼层
本帖最后由 微笑面对 于 2015-8-2 21:30 编辑
Exact Audio Copy V1.0 beta 3 from 29. August 2011

EAC 抓取日志文件从1. 八月 2015, 19:17

Beyond / 《光辉30年》

使用驱动器  :HL-DT-STDVDROM DH18NS40   Adapter: 2  ID: 0

读取模式 : 快速

读取偏移校正:               : 0
读取 Lead-In 和 Lead-Out : 否
用静音填充抓取中丢失偏移的采样       : 是
去除首尾静音块               : 否
在CRC 计算中使用了空样本       : 是
已用接口                  : Win NT 及 2000 本地 Win32 接口

所用输出模式: : 内部 WAV 函数
样本格式    : 44.100 Hz; 16 Bit; 立体声


已抓取 CD 的 TOC

     音轨 |    起始    |    长度    |  起始扇区  |  结束扇区  
    --------------------------------------------
      1 |  0:00.00 |  4:36.03 |      0 |  20702
      2 |  4:36.03 |  4:26.09 |  20703 |  40661
      3 |  9:02.12 |  5:23.46 |  40662 |  64932
      4 | 14:25.58 |  5:50.42 |  64933 |  91224
      5 | 20:16.25 |  4:50.53 |  91225 | 113027
      6 | 25:07.03 |  4:01.71 | 113028 | 131173
      7 | 29:08.74 |  4:37.20 | 131174 | 151968
      8 | 33:46.19 |  5:17.57 | 151969 | 175800
      9 | 39:04.01 |  4:22.06 | 175801 | 195456
     10 | 43:26.07 |  4:43.63 | 195457 | 216744
     11 | 48:09.70 |  4:28.35 | 216745 | 236879
     12 | 52:38.30 |  4:42.10 | 236880 | 258039
     13 | 57:20.40 |  4:05.43 | 258040 | 276457
     14 | 61:26.08 |  4:47.43 | 276458 | 298025
     15 | 66:13.51 |  4:18.21 | 298026 | 317396


范围状态及错误

已选择范围

     文件名 F:\Beyond - 《光辉30年》CD2.wav

     峰值电平 98.2 %
     抓取速度 5.7 X
     复制 CRC 2817950E
     复制成功

没有错误发生

状态报告结尾

==== 记录校验日志 0E8FEF21ACB45814A7B9C43BDFF461077452B723C439EF04354CD23B598866C3 ====



415

主题

781

帖子

4万

积分

天王巨星

Rank: 7Rank: 7Rank: 7

积分
41885

社区QQ达人灌水勋章分享勋章

 楼主| 发表于 2015-8-2 21:22:34 | 显示全部楼层
本帖最后由 微笑面对 于 2015-8-27 10:16 编辑
抱歉,CD1链接忘记附上,百度链接如下:
链接: http://pan.baidu.com/s/1kThD3O7 密码: 53u8






0

主题

318

帖子

479

积分

职业歌手

Rank: 3Rank: 3

积分
479
发表于 2015-8-3 01:58:12 | 显示全部楼层
谢谢楼主分享好音乐。。。。。。。

0

主题

198

帖子

1036

积分

职业歌手

Rank: 3Rank: 3

积分
1036
发表于 2015-8-3 07:08:23 | 显示全部楼层
谢谢楼主辛苦了 好音乐 感谢您的发布,

0

主题

186

帖子

118

积分

新人会员,请认真回复,若恶意回复,直接封号

Rank: 1

积分
118

社区QQ达人

发表于 2015-8-3 08:37:07 | 显示全部楼层

谢谢分享期待已久,好声音!真正的好音乐!

0

主题

186

帖子

118

积分

新人会员,请认真回复,若恶意回复,直接封号

Rank: 1

积分
118

社区QQ达人

发表于 2015-8-3 08:38:03 | 显示全部楼层

谢谢分享期待已久,好声音!真正的好音乐!

0

主题

186

帖子

118

积分

新人会员,请认真回复,若恶意回复,直接封号

Rank: 1

积分
118

社区QQ达人

发表于 2015-8-3 08:40:29 | 显示全部楼层
谢谢分享期待已久,好声音!真正的好音乐!

0

主题

186

帖子

118

积分

新人会员,请认真回复,若恶意回复,直接封号

Rank: 1

积分
118

社区QQ达人

发表于 2015-8-3 08:46:34 | 显示全部楼层
谢谢分享期待已久,好声音!真正的好音乐!

0

主题

186

帖子

118

积分

新人会员,请认真回复,若恶意回复,直接封号

Rank: 1

积分
118

社区QQ达人

发表于 2015-8-3 08:47:24 | 显示全部楼层
www.cdbao.net好音乐更新最快音质最好

0

主题

46

帖子

111

积分

新人会员,请认真回复,若恶意回复,直接封号

Rank: 1

积分
111
发表于 2015-8-4 15:01:47 | 显示全部楼层
很经典,很期待,谢谢楼主的分享。

0

主题

13

帖子

158

积分

乐坛新星

Rank: 2

积分
158
发表于 2015-8-4 16:40:24 | 显示全部楼层
好像買不起了.

0

主题

13

帖子

158

积分

乐坛新星

Rank: 2

积分
158
发表于 2015-8-4 16:40:29 | 显示全部楼层
好像買不起了.

0

主题

92

帖子

994

积分

职业歌手

Rank: 3Rank: 3

积分
994

社区QQ达人

发表于 2015-8-5 08:31:52 | 显示全部楼层
非常感谢楼主分享!!!!!!
您需要登录后才可以回帖 登录 | 注册

本版积分规则

快速回复 返回顶部 返回列表