查看: 3613|回复: 133

原抓:那英《英姿独厚3CD》德国HD[WAV+CUE/百度]

  [复制链接]

416

主题

783

帖子

4万

积分

天王巨星

Rank: 7Rank: 7Rank: 7

积分
42134

社区QQ达人灌水勋章分享勋章

发表于 2015-7-8 21:58:29 | 显示全部楼层 |阅读模式

注册会员,获得无损资源下载地址,享受高品质音乐。

您需要 登录 才可以下载或查看,没有帐号?注册

x
本帖最后由 微笑面对 于 2015-7-12 18:17 编辑

cover_副本.jpg
back_副本.jpg
CD_副本.jpg

专辑名称:英姿独厚HD3CD
专辑艺人:那英
出版发行:珠影白天鹅音像出版社
ISRC编码:CN-F23-10-0224-0/A.J6
发行时间:2015

专辑介绍:
亚洲实力天后再掀音乐狂潮 
德国HD高密度24BIT,数码录音,
3D音效与360度环绕,使音质更加完美.

专辑曲目:
Disc One
01 今年
02 刺缘
03 爱的天空
04 爱上你等于爱上寂寞
05 姐妹弟兄
06 只要有你
07 身不由己
08 你从未离开
09 放爱一条生路
10 一千一万遍
11 认了吧
12 梦醒了
13 出卖
14 毒药
15 征服
16 离不开
17 愿赌服输

Disc Two
01 我不是天使
02 我只喜欢你
03 心酸的浪漫
04 为你朝思暮想
05 不管有多苦
06 一切都变了
07 做我自己
08 贪恋
09 梦一场
10 干脆
11 为了爱
12 白丝线
13 苦中作乐
14 爱要有你才完美
15 白天不懂夜的黑
16 山不转水转
17 相约九八

Disc Three
01 一笑而过
02 雾里看花
03 没完没了
04 欲走还留
05 争分夺秒
06 等待
07 偏心
08 醒时作梦
09 如今
10 反省
11 想念
12 心甘情愿
13 哭过以后
14 爱的阳光
15 原来爱那么难
16 风雨给我温暖给你
17 相见不如怀念


1、本音乐仅供试听、若喜欢,请购买正版CD。
2、版权归唱片公司所有。
3、请下载后24小时内删除。

游客,如果您要查看本帖隐藏内容请回复


评分

参与人数 1CD +160 收起 理由
醉耳 + 160 感谢分享资源,CD包因你而精彩.

查看全部评分




上一篇:李咏红 《人声金嗓子》WAV+CUE/快传+百度
下一篇:周笔畅《翻白眼Ⅱ》FLAC分轨/百度盘/2015年迷你数字专辑Ⅱ

416

主题

783

帖子

4万

积分

天王巨星

Rank: 7Rank: 7Rank: 7

积分
42134

社区QQ达人灌水勋章分享勋章

 楼主| 发表于 2015-7-8 21:59:49 | 显示全部楼层
Exact Audio Copy V1.0 beta 3 from 29. August 2011

EAC 抓取日志文件从4. 七月 2015, 23:48

未知艺术家 / -

使用驱动器  :HL-DT-STDVDROM DH18NS40   Adapter: 2  ID: 0

读取模式 : 快速

读取偏移校正:               : 0
读取 Lead-In 和 Lead-Out : 否
用静音填充抓取中丢失偏移的采样       : 是
去除首尾静音块               : 否
在CRC 计算中使用了空样本       : 是
已用接口                  : Win NT 及 2000 本地 Win32 接口

所用输出模式: : 内部 WAV 函数
样本格式    : 44.100 Hz; 16 Bit; 立体声


已抓取 CD 的 TOC

     音轨 |    起始    |    长度    |  起始扇区  |  结束扇区  
    --------------------------------------------
      1 |  0:00.00 |  4:00.09 |      0 |  18008
      2 |  4:00.09 |  3:09.51 |  18009 |  32234
      3 |  7:09.60 |  4:02.04 |  32235 |  50388
      4 | 11:11.64 |  5:15.59 |  50389 |  74072
      5 | 16:27.48 |  4:48.59 |  74073 |  95731
      6 | 21:16.32 |  3:34.08 |  95732 | 111789
      7 | 24:50.40 |  4:17.39 | 111790 | 131103
      8 | 29:08.04 |  5:16.71 | 131104 | 154874
      9 | 34:25.00 |  4:46.09 | 154875 | 176333
     10 | 39:11.09 |  4:16.53 | 176334 | 195586
     11 | 43:27.62 |  3:42.00 | 195587 | 212236
     12 | 47:09.62 |  4:15.37 | 212237 | 231398
     13 | 51:25.24 |  4:25.14 | 231399 | 251287
     14 | 55:50.38 |  3:28.06 | 251288 | 266893
     15 | 59:18.44 |  4:55.72 | 266894 | 289090
     16 | 64:14.41 |  4:52.00 | 289091 | 310990
     17 | 69:06.41 |  3:44.35 | 310991 | 327825


范围状态及错误

已选择范围

     文件名 F:\那英《英姿独厚3CD》德国HD\CD1\未知艺术家.wav

     峰值电平 97.6 %
     抓取速度 2.8 X
     复制 CRC B0776FAF
     复制成功

没有错误发生

状态报告结尾


416

主题

783

帖子

4万

积分

天王巨星

Rank: 7Rank: 7Rank: 7

积分
42134

社区QQ达人灌水勋章分享勋章

 楼主| 发表于 2015-7-8 22:01:22 | 显示全部楼层


416

主题

783

帖子

4万

积分

天王巨星

Rank: 7Rank: 7Rank: 7

积分
42134

社区QQ达人灌水勋章分享勋章

 楼主| 发表于 2015-7-8 22:02:14 | 显示全部楼层
Exact Audio Copy V1.0 beta 3 from 29. August 2011

EAC 抓取日志文件从8. 七月 2015, 18:27

未知艺术家 / -

使用驱动器  :HL-DT-STDVDROM DH18NS40   Adapter: 2  ID: 0

读取模式 : 快速

读取偏移校正:               : 0
读取 Lead-In 和 Lead-Out : 否
用静音填充抓取中丢失偏移的采样       : 是
去除首尾静音块               : 否
在CRC 计算中使用了空样本       : 是
已用接口                  : Win NT 及 2000 本地 Win32 接口

所用输出模式: : 内部 WAV 函数
样本格式    : 44.100 Hz; 16 Bit; 立体声


已抓取 CD 的 TOC

     音轨 |    起始    |    长度    |  起始扇区  |  结束扇区  
    --------------------------------------------
      1 |  0:00.00 |  4:18.00 |      0 |  19349
      2 |  4:18.00 |  3:10.19 |  19350 |  33618
      3 |  7:28.19 |  5:03.70 |  33619 |  56413
      4 | 12:32.14 |  4:45.65 |  56414 |  77853
      5 | 17:18.04 |  4:29.24 |  77854 |  98052
      6 | 21:47.28 |  4:24.47 |  98053 | 117899
      7 | 26:12.00 |  4:24.12 | 117900 | 137711
      8 | 30:36.12 |  4:06.33 | 137712 | 156194
      9 | 34:42.45 |  3:48.60 | 156195 | 173354
     10 | 38:31.30 |  4:28.43 | 173355 | 193497
     11 | 42:59.73 |  3:35.47 | 193498 | 209669
     12 | 46:35.45 |  4:54.40 | 209670 | 231759
     13 | 51:30.10 |  4:41.13 | 231760 | 252847
     14 | 56:11.23 |  4:54.74 | 252848 | 274971
     15 | 61:06.22 |  4:05.03 | 274972 | 293349
     16 | 65:11.25 |  3:09.41 | 293350 | 307565
     17 | 68:20.66 |  5:10.00 | 307566 | 330815


范围状态及错误

已选择范围

     文件名 F:\那英《英姿独厚3CD》德国HD\CD2\CDImage.wav

     峰值电平 99.8 %
     抓取速度 2.8 X
     复制 CRC 893FBD88
     复制成功

没有错误发生

状态报告结尾


416

主题

783

帖子

4万

积分

天王巨星

Rank: 7Rank: 7Rank: 7

积分
42134

社区QQ达人灌水勋章分享勋章

 楼主| 发表于 2015-7-8 22:02:53 | 显示全部楼层
Exact Audio Copy V1.0 beta 3 from 29. August 2011

EAC 抓取日志文件从8. 七月 2015, 20:12

未知艺术家 / -

使用驱动器  :HL-DT-STDVDROM DH18NS40   Adapter: 2  ID: 0

读取模式 : 快速

读取偏移校正:               : 0
读取 Lead-In 和 Lead-Out : 否
用静音填充抓取中丢失偏移的采样       : 是
去除首尾静音块               : 否
在CRC 计算中使用了空样本       : 是
已用接口                  : Win NT 及 2000 本地 Win32 接口

所用输出模式: : 内部 WAV 函数
样本格式    : 44.100 Hz; 16 Bit; 立体声


已抓取 CD 的 TOC

     音轨 |    起始    |    长度    |  起始扇区  |  结束扇区  
    --------------------------------------------
      1 |  0:00.00 |  4:35.70 |      0 |  20694
      2 |  4:35.70 |  2:57.36 |  20695 |  34005
      3 |  7:33.31 |  4:06.52 |  34006 |  52507
      4 | 11:40.08 |  4:30.26 |  52508 |  72783
      5 | 16:10.34 |  3:44.68 |  72784 |  89651
      6 | 19:55.27 |  4:55.20 |  89652 | 111796
      7 | 24:50.47 |  4:32.00 | 111797 | 132196
      8 | 29:22.47 |  5:26.02 | 132197 | 156648
      9 | 34:48.49 |  4:49.65 | 156649 | 178388
     10 | 39:38.39 |  4:39.58 | 178389 | 199371
     11 | 44:18.22 |  3:46.23 | 199372 | 216344
     12 | 48:04.45 |  4:14.15 | 216345 | 235409
     13 | 52:18.60 |  4:06.07 | 235410 | 253866
     14 | 56:24.67 |  2:53.49 | 253867 | 266890
     15 | 59:18.41 |  4:56.72 | 266891 | 289162
     16 | 64:15.38 |  4:47.07 | 289163 | 310694
     17 | 69:02.45 |  5:04.59 | 310695 | 333553


范围状态及错误

已选择范围

     文件名 F:\那英《英姿独厚3CD》德国HD\CD3\CDImage.wav

     峰值电平 97.6 %
     抓取速度 2.8 X
     复制 CRC E98C2CC1
     复制成功

没有错误发生

状态报告结尾

==== 记录校验日志 8BAC14B948AC4066D28B26347D8ECEA4FF892F612EE44BCF2508E7579E2D828B ====


0

主题

600

帖子

288

积分

乐坛新星

Rank: 2

积分
288

社区QQ达人

发表于 2015-7-8 22:08:20 | 显示全部楼层
这个是一个奇迹,收藏一下,花了500.

1

主题

223

帖子

626

积分

职业歌手

Rank: 3Rank: 3

积分
626
发表于 2015-7-9 03:20:39 | 显示全部楼层
这个好,十分感谢楼主的分享奉献

0

主题

95

帖子

182

积分

乐坛新星

Rank: 2

积分
182

社区QQ达人

发表于 2015-7-9 09:20:00 | 显示全部楼层
特别感谢楼主的分享奉献!!!!!!!!!!!

0

主题

120

帖子

236

积分

乐坛新星

Rank: 2

积分
236
发表于 2015-7-9 09:59:30 | 显示全部楼层
感谢楼主无私分享,山不转来水在转

0

主题

138

帖子

156

积分

乐坛新星

Rank: 2

积分
156

社区QQ达人

发表于 2015-7-9 11:25:02 | 显示全部楼层
支持楼主 支持无损音乐 支持那英 楼主辛苦了

60

主题

324

帖子

1万

积分

流行教主

分享我最爱的音乐

Rank: 6Rank: 6

积分
18809

社区QQ达人灌水勋章分享勋章

QQ
发表于 2015-7-9 19:12:16 | 显示全部楼层
我没有钱,只能望而却步~虽然喜欢那英,但是,亲,能便宜点吗?

0

主题

188

帖子

193

积分

乐坛新星

Rank: 2

积分
193
发表于 2015-7-10 11:15:29 | 显示全部楼层
我没有钱,只能望而却步~虽然喜欢那英,但是,亲,能便宜点吗?

0

主题

399

帖子

570

积分

职业歌手

Rank: 3Rank: 3

积分
570

社区QQ达人

发表于 2015-7-10 15:22:09 | 显示全部楼层
下载听听,谢谢楼主分享。祝论坛红火!

0

主题

77

帖子

-634

积分

恶意回复被扣没分了,积分增加方法见置顶帖

积分
-634

社区QQ达人

发表于 2015-7-10 21:34:43 | 显示全部楼层
感谢楼主无私分享,山不转来水在转

0

主题

77

帖子

-634

积分

恶意回复被扣没分了,积分增加方法见置顶帖

积分
-634

社区QQ达人

发表于 2015-7-10 21:35:20 | 显示全部楼层
感谢楼主无私分享,山不转来水在转
您需要登录后才可以回帖 登录 | 注册

本版积分规则

快速回复 返回顶部 返回列表