查看: 734|回复: 19

意大利歌王:Antonello Venditti《Tortuga》2015/FLAC/BD

[复制链接] [已阅至20楼]
 成长值: 19620

6514

主题

1万

帖子

8万

积分

音乐掌门人

Rank: 20Rank: 20Rank: 20Rank: 20Rank: 20

积分
84207

名人勋章社区QQ达人分享勋章精华帖达人灌水勋章

发表于 2015-7-7 14:51:51 | 显示全部楼层 |阅读模式

注册会员,获得无损资源下载地址,享受高品质音乐。

您需要 登录 才可以下载或查看,没有帐号?注册

x
13413939882914.jpg

被誉为意大利国民歌王的安东尼洛凡狄帝Antonello Venditti,出生于罗马,从小学习钢琴,造就一身创作才赋。70年代初期便出道,1972年发行首张专辑《Theorius Campus》,赢得不小回响。拥有高亢清亮嗓音,甚至不时加入独特罗马古方言,“Sora Rosa”、“Roma Capoccia”都是极具代表的作品。1973年移居到米兰,随后推出的《L’orso Bruno》,与知名制作/乐手Vince Tempera共通合谱之大碟,获得RCA大厂赏识,接连协助问市多张畅销专辑,整个70年代可说是Antonello开花结果的重要时期。进入80年代前,遭逢婚变,虽对Antonello来说是个打击,却更加坚持音乐理念,打造属于自己的Heinz Music厂牌,仍将爱的真谛换化于歌曲词句中,触角延伸电影原声带之配乐,闯荡至新世纪到来,声势不见下坠,引领出一首首属于爱的主题曲。

Front.jpg

Antonello Venditti - Tortuga

Жанр: Pop
Носитель: CD
Страна-производитель диска (релиза): EU
Год издания: 2015
Издатель (лейбл): Heinz Music/Sony Music
Номер по каталогу: 0888750538628
Страна исполнителя (группы): Italy
Аудиокодек: FLAC (*.flac)
Тип рипа: tracks+.cue
Битрейт аудио: lossless
Продолжительность: 33:24.506

01.jpg
02.jpg
03.jpg
04.jpg
05.jpg
06.jpg
Rear.jpg
CD.jpg

01. Cosa avevi in mente [3:55]

02. Non so dirti quando [3:29]

03. Tienimi dentro te [3:15]
04. Nel mio infinito cielo di canzoni [3:43]
05. I ragazzi del Tortuga [3:51]
06. Ti amo inutilmente [3:55]
07. Attento a lei [3:55]
08. L'ultimo giorno rubato [3:12]
09. Tortuga [4:05]

Exact Audio Copy V1.0 beta 6 from 9. April 2015
EAC extraction logfile from 23. April 2015, 14:11
Antonello Venditti / Tortuga
Used drive  : ASUS    BC-12D2HT   Adapter: 1  ID: 1
Read mode               : Secure
Utilize accurate stream : Yes
Defeat audio cache      : Yes
Make use of C2 pointers : No
Read offset correction                      : 6
Overread into Lead-In and Lead-Out          : No
Fill up missing offset samples with silence : Yes
Delete leading and trailing silent blocks   : No
Null samples used in CRC calculations       : Yes
Used interface                              : Installed external ASPI interface
Gap handling                                : Appended to previous track
Used output format              : User Defined Encoder
Selected bitrate                : 1024 kBit/s
Quality                         : High
Add ID3 tag                     : No
Command line compressor         : C:\Program Files (x86)\Exact Audio Copy\FLAC\FLAC.EXE
Additional command line options : -8 -V -T "ARTIST=%artist%" -T "TITLE=%title%" -T "ALBUM=%albumtitle%" -T "DATE=%year%" -T "TRACKNUMBER=%tracknr%" -T "GENRE=%genre%" -T "PERFORMER=%albuminterpret%" -T "COMPOSER=%composer%" %haslyrics%--tag-from-file=LYRICS="%lyricsfile%"%haslyrics% -T "ALBUMARTIST=%albumartist%" -T "DISCNUMBER=%cdnumber%" -T "TOTALDISCS=%totalcds%" -T "TOTALTRACKS=%numtracks%" -T "COMMENT=%comment%" %source% -o %dest%
TOC of the extracted CD
     Track |   Start  |  Length  | Start sector | End sector
    ---------------------------------------------------------
        1  |  0:00.00 |  3:55.74 |         0    |    17698
        2  |  3:55.74 |  3:29.15 |     17699    |    33388
        3  |  7:25.14 |  3:15.37 |     33389    |    48050
        4  | 10:40.51 |  3:43.22 |     48051    |    64797
        5  | 14:23.73 |  3:51.67 |     64798    |    82189
        6  | 18:15.65 |  3:55.36 |     82190    |    99850
        7  | 22:11.26 |  3:55.06 |     99851    |   117481
        8  | 26:06.32 |  3:12.49 |    117482    |   131930
        9  | 29:19.06 |  4:05.32 |    131931    |   150337
Track  1
     Filename C:\Steno\01. Antonello Venditti - Cosa avevi in mente.wav
     Pre-gap length  0:00:02.00
     Peak level 98.9 %
     Extraction speed 4.2 X
     Track quality 100.0 %
     Test CRC AEA12879
     Copy CRC AEA12879
     Track not present in AccurateRip database
     Copy OK
Track  2
     Filename C:\Steno\02. Antonello Venditti - Non so dirti quando.wav
     Pre-gap length  0:00:01.69
     Peak level 98.8 %
     Extraction speed 4.6 X
     Track quality 100.0 %
     Test CRC 7FD9A51C
     Copy CRC 7FD9A51C
     Track not present in AccurateRip database
     Copy OK
Track  3
     Filename C:\Steno\03. Antonello Venditti - Tienimi dentro te.wav
     Pre-gap length  0:00:02.52
     Peak level 100.0 %
     Extraction speed 4.9 X
     Track quality 100.0 %
     Test CRC A6429259
     Copy CRC A6429259
     Track not present in AccurateRip database
     Copy OK
Track  4
     Filename C:\Steno\04. Antonello Venditti - Nel mio infinito cielo di canzoni.wav
     Pre-gap length  0:00:00.48
     Peak level 98.9 %
     Extraction speed 5.3 X
     Track quality 100.0 %
     Test CRC 50D1DEF8
     Copy CRC 50D1DEF8
     Track not present in AccurateRip database
     Copy OK
Track  5
     Filename C:\Steno\05. Antonello Venditti - I ragazzi del Tortuga.wav
     Pre-gap length  0:00:01.28
     Peak level 98.8 %
     Extraction speed 5.7 X
     Track quality 100.0 %
     Test CRC B4A67583
     Copy CRC B4A67583
     Track not present in AccurateRip database
     Copy OK
Track  6
     Filename C:\Steno\06. Antonello Venditti - Ti amo inutilmente.wav
     Pre-gap length  0:00:01.60
     Peak level 98.9 %
     Extraction speed 6.0 X
     Track quality 100.0 %
     Test CRC 8DF193CB
     Copy CRC 8DF193CB
     Track not present in AccurateRip database
     Copy OK
Track  7
     Filename C:\Steno\07. Antonello Venditti - Attento a lei.wav
     Pre-gap length  0:00:00.69
     Peak level 98.9 %
     Extraction speed 6.2 X
     Track quality 100.0 %
     Test CRC 35584288
     Copy CRC 35584288
     Track not present in AccurateRip database
     Copy OK
Track  8
     Filename C:\Steno\08. Antonello Venditti - L'ultimo giorno rubato.wav
     Pre-gap length  0:00:01.04
     Peak level 98.9 %
     Extraction speed 6.0 X
     Track quality 100.0 %
     Test CRC 46818B82
     Copy CRC 46818B82
     Track not present in AccurateRip database
     Copy OK
Track  9
     Filename C:\Steno\09. Antonello Venditti - Tortuga.wav
     Pre-gap length  0:00:01.20
     Peak level 99.9 %
     Extraction speed 6.5 X
     Track quality 100.0 %
     Test CRC C47ADA22
     Copy CRC C47ADA22
     Track not present in AccurateRip database
     Copy OK
None of the tracks are present in the AccurateRip database
No errors occurred
End of status report
---- CUETools DB Plugin V2.1.6
[CTDB TOCID: USTUMAO.rO8rsclYR.d0Eu4J6aw-] disk not present in database
Submit result: USTUMAO.rO8rsclYR.d0Eu4J6aw- has been uploaded
==== Log checksum 7C38A63DAC41A789C3CA1D2DA498ED522A6C57FF7ED0E1D1B2B325F17C06720B ====


=======================================
百度下载:
游客,如果您要查看本帖隐藏内容请回复
来自群组: 欧美流行



上一篇:美女流行歌手:Sabrina Carpenter《Eyes Wide Open》2015/FLAC/度盘
下一篇:罗马尼亚性感女歌手:Antonia《This Is Antonia》2015/FLAC/BD
关于链接失效的说明(度盘+115盘+快传 好友分享的说明)
http://www.cdbao.net/thread-117499-1-1.html     
紧急通告:115,快传等网盘取消了分享功能礼包码链接全部失效
http://www.cdbao.net/thread-122759-1-1.html

0

主题

151

帖子

190

积分

乐坛新星

Rank: 2

积分
190

社区QQ达人

发表于 2015-7-7 15:59:44 | 显示全部楼层
谢谢!楼主辛苦了,非常感谢!

0

主题

842

帖子

1246

积分

职业歌手

Rank: 3Rank: 3

积分
1246
发表于 2015-7-7 19:48:23 | 显示全部楼层
意大利难得的爷们声音。谢谢分享。

0

主题

104

帖子

353

积分

乐坛新星

Rank: 2

积分
353
发表于 2015-7-7 23:31:44 | 显示全部楼层
这声音很好听,感谢分享

0

主题

503

帖子

1120

积分

职业歌手

Rank: 3Rank: 3

积分
1120

社区QQ达人

发表于 2015-7-8 08:54:56 | 显示全部楼层
这种意大利老鬼的声音我喜欢,谢谢楼主分享

0

主题

359

帖子

441

积分

乐坛新星

Rank: 2

积分
441

社区QQ达人

发表于 2015-7-8 09:09:10 | 显示全部楼层
很喜欢意大利音乐,谢谢分享。

0

主题

869

帖子

1527

积分

当红偶像

Rank: 4

积分
1527
发表于 2015-7-8 13:45:22 | 显示全部楼层
非常不错!多谢分享精彩音乐!

0

主题

20

帖子

89

积分

新人会员,请认真回复,若恶意回复,直接封号

Rank: 1

积分
89
发表于 2015-7-8 21:59:26 | 显示全部楼层
太好听了~让我想起了胡里奥,哈哈!谢谢楼主分享!

0

主题

1750

帖子

2508

积分

当红偶像

Rank: 4

积分
2508
发表于 2015-7-9 13:02:31 | 显示全部楼层
谢谢楼主分享!感受一下意大利老男人的味道……
integral

0

主题

551

帖子

2091

积分

当红偶像

Rank: 4

积分
2091

社区QQ达人

发表于 2015-7-10 01:07:32 | 显示全部楼层
楼主还有意大利吗?民歌类?谢谢!!

0

主题

181

帖子

92

积分

新人会员,请认真回复,若恶意回复,直接封号

Rank: 1

积分
92

社区QQ达人

发表于 2015-7-16 11:53:27 | 显示全部楼层

意大利难得的爷们声音。谢谢分享。

0

主题

9

帖子

305

积分

乐坛新星

Rank: 2

积分
305

社区QQ达人

发表于 2015-9-5 22:45:49 | 显示全部楼层
这老爷子的声音可以啊,不错不错,谢谢

0

主题

732

帖子

794

积分

职业歌手

Rank: 3Rank: 3

积分
794
发表于 2015-9-24 19:33:06 | 显示全部楼层
太珍贵了。这张碟有点陌生,下载先听听看。感谢作者上传。

0

主题

12

帖子

70

积分

新人会员,请认真回复,若恶意回复,直接封号

Rank: 1

积分
70
发表于 2015-10-22 00:34:32 | 显示全部楼层
一看见百度下载,希望大增,115不能用了

0

主题

96

帖子

205

积分

乐坛新星

Rank: 2

积分
205

社区QQ达人

发表于 2015-10-28 12:35:55 | 显示全部楼层
楼主辛苦了,非常感谢!
您需要登录后才可以回帖 登录 | 注册

本版积分规则

快速回复 返回顶部 返回列表