查看: 2975|回复: 106

原抓:王菲《爱不可及2CD》 2015 [WAV+CUE/百度]

  [复制链接]

416

主题

783

帖子

4万

积分

天王巨星

Rank: 7Rank: 7Rank: 7

积分
42134

社区QQ达人灌水勋章分享勋章

发表于 2015-7-8 05:39:20 | 显示全部楼层 |阅读模式

注册会员,获得无损资源下载地址,享受高品质音乐。

您需要 登录 才可以下载或查看,没有帐号?注册

x
本帖最后由 微笑面对 于 2015-7-12 11:55 编辑

cover_副本.jpg
back_副本.jpg

专辑名称:爱不可及2CD
专辑艺人:王菲
出版发行:珠影白天鹅音像出版社
ISRC:CN-F23-10-553-00/A.J6
发行时间:2015年6月

介绍:
王菲是一个音乐精灵,空灵的声音,
率真的个性,智慧的眼睛,慵懒的表情,
有时无奈,有时轻狂,有时平静,有时激扬,
生命多面而精彩,混杂了后现代的气质,
肆无忌惮的叛逆因子,以及飘忽和颓废的真性情,
加以绝无仅有的嗓音和另类灵气,
无怪乎她的歌坛大姐大地位至今稳如泰山。
也只有她,才能将音乐诠释得如此精到而传情,
于千折百绕的旋律间令汤汤众生倾倒。

专辑精选王菲经典情歌金曲33首,值得大家细细品味。

曲目:
CD1
01 爱不可及
02 因为爱情
03 又见炊烟
04 暧昧
05 棋子
06 天使
07 流星
08 蝴蝶
09 色戒
10 软弱
11 出路
12 不变
13 云端
14 非常夏日
15 将爱实现
16 当时的月亮
17 爱与痛的边缘

CD2
01 致青春
02 愿
03 传奇
04 红豆
05 约定
06 流年
07 心经
08 人间
09 天空
10 旋木
11 冷战
12 催眠
13 偿还
14 誓言
15 影子
16 矜持



压缩包内附封面、封底图片!


资源下载:
游客,如果您要查看本帖隐藏内容请回复

点评

下期原抓资源,靓音唱片 那英英姿独厚3CD,敬请关注CD包动态!  发表于 2015-7-8 14:34

评分

参与人数 1CD +135 包子 +2 收起 理由
醉耳 + 135 + 2 感谢分享资源,CD包因你而精彩.

查看全部评分




上一篇:张玮伽《念念勿忘HQCDⅡ》2015 [WAV+CUE/百度]
下一篇:张敬轩《找对的人》FLAC/分轨/百度

0

主题

32

帖子

296

积分

乐坛新星

Rank: 2

积分
296
发表于 2015-7-8 10:50:28 | 显示全部楼层
本主题需向作者支付 500 碟CD 才能浏览,我是不是只能看不能下。

416

主题

783

帖子

4万

积分

天王巨星

Rank: 7Rank: 7Rank: 7

积分
42134

社区QQ达人灌水勋章分享勋章

 楼主| 发表于 2015-7-8 05:39:21 | 显示全部楼层
本帖最后由 微笑面对 于 2015-7-7 21:43 编辑




416

主题

783

帖子

4万

积分

天王巨星

Rank: 7Rank: 7Rank: 7

积分
42134

社区QQ达人灌水勋章分享勋章

 楼主| 发表于 2015-7-8 05:39:22 | 显示全部楼层
本帖最后由 微笑面对 于 2015-7-7 21:46 编辑

Exact Audio Copy V1.0 beta 3 from 29. August 2011

EAC 抓取日志文件从6. 七月 2015, 19:30

- / -

使用驱动器  :HL-DT-STDVDROM DH18NS40   Adapter: 2  ID: 0

读取模式 : 快速

读取偏移校正:               : 0
读取 Lead-In 和 Lead-Out : 否
用静音填充抓取中丢失偏移的采样       : 是
去除首尾静音块               : 否
在CRC 计算中使用了空样本       : 是
已用接口                  : Win NT 及 2000 本地 Win32 接口

所用输出模式: : 内部 WAV 函数
样本格式    : 44.100 Hz; 16 Bit; 立体声


已抓取 CD 的 TOC

     音轨 |    起始    |    长度    |  起始扇区  |  结束扇区  
    --------------------------------------------
      1 |  0:00.00 |  3:13.08 |      0 |  14482
      2 |  3:13.08 |  3:36.12 |  14483 |  30694
      3 |  6:49.20 |  3:35.28 |  30695 |  46847
      4 | 10:24.48 |  4:39.61 |  46848 |  67833
      5 | 15:04.34 |  4:49.34 |  67834 |  89542
      6 | 19:53.68 |  4:27.05 |  89543 | 109572
      7 | 24:20.73 |  3:59.73 | 109573 | 127570
      8 | 28:20.71 |  3:59.00 | 127571 | 145495
      9 | 32:19.71 |  4:54.42 | 145496 | 167587
     10 | 37:14.38 |  4:24.66 | 167588 | 187453
     11 | 41:39.29 |  3:54.67 | 187454 | 205070
     12 | 45:34.21 |  4:46.47 | 205071 | 226567
     13 | 50:20.68 |  3:55.34 | 226568 | 244226
     14 | 54:16.27 |  4:21.63 | 244227 | 263864
     15 | 58:38.15 |  4:43.70 | 263865 | 285159
     16 | 63:22.10 |  3:53.48 | 285160 | 302682
     17 | 67:15.58 |  4:30.16 | 302683 | 322948


范围状态及错误

已选择范围

     文件名 F:\王菲《爱不可及HDCD》2CD\CD1\CDImage.wav

     峰值电平 100.0 %
     抓取速度 5.8 X
     复制 CRC 97E289B2
     复制成功

没有错误发生

状态报告结尾

416

主题

783

帖子

4万

积分

天王巨星

Rank: 7Rank: 7Rank: 7

积分
42134

社区QQ达人灌水勋章分享勋章

 楼主| 发表于 2015-7-8 05:39:23 | 显示全部楼层
本帖最后由 微笑面对 于 2015-7-7 21:45 编辑

Exact Audio Copy V1.0 beta 3 from 29. August 2011

EAC 抓取日志文件从6. 七月 2015, 20:02

- / -

使用驱动器  :HL-DT-STDVDROM DH18NS40   Adapter: 2  ID: 0

读取模式 : 快速

读取偏移校正:               : 0
读取 Lead-In 和 Lead-Out : 否
用静音填充抓取中丢失偏移的采样       : 是
去除首尾静音块               : 否
在CRC 计算中使用了空样本       : 是
已用接口                  : Win NT 及 2000 本地 Win32 接口

所用输出模式: : 内部 WAV 函数
样本格式    : 44.100 Hz; 16 Bit; 立体声


已抓取 CD 的 TOC

     音轨 |    起始    |    长度    |  起始扇区  |  结束扇区  
    --------------------------------------------
      1 |  0:00.00 |  3:02.53 |      0 |  13702
      2 |  3:02.53 |  3:51.74 |  13703 |  31101
      3 |  6:54.52 |  4:46.74 |  31102 |  52625
      4 | 11:41.51 |  4:16.01 |  52626 |  71826
      5 | 15:57.52 |  4:26.09 |  71827 |  91785
      6 | 20:23.61 |  4:32.14 |  91786 | 112199
      7 | 24:56.00 |  6:00.29 | 112200 | 139228
      8 | 30:56.29 |  4:45.29 | 139229 | 160632
      9 | 35:41.58 |  4:20.46 | 160633 | 180178
     10 | 40:02.29 |  4:10.09 | 180179 | 198937
     11 | 44:12.38 |  4:10.56 | 198938 | 217743
     12 | 48:23.19 |  4:21.02 | 217744 | 237320
     13 | 52:44.21 |  4:17.00 | 237321 | 256595
     14 | 57:01.21 |  4:20.70 | 256596 | 276165
     15 | 61:22.16 |  4:57.26 | 276166 | 298466
     16 | 66:19.42 |  4:39.12 | 298467 | 319403


范围状态及错误

已选择范围

     文件名 F:\王菲《爱不可及HDCD》2CD\CD2\CDImage.wav

     峰值电平 100.0 %
     抓取速度 2.6 X
     复制 CRC 9DA27B11
     复制成功

没有错误发生

状态报告结尾

 成长值: 3645

0

主题

31

帖子

811

积分

VIP4

Rank: 7Rank: 7Rank: 7

积分
811

社区QQ达人

发表于 2015-7-8 22:03:06 | 显示全部楼层
我有多少CD碟啊?够不够500?VIP无效啊?

0

主题

208

帖子

278

积分

乐坛新星

Rank: 2

积分
278

社区QQ达人

发表于 2015-7-8 22:38:10 | 显示全部楼层
感觉不错,就是没看到歌名,谢谢分享

1

主题

48

帖子

142

积分

新人会员,请认真回复,若恶意回复,直接封号

Rank: 1

积分
142

社区QQ达人

发表于 2015-7-9 11:08:10 | 显示全部楼层
好贵啊~ 暂时买不起 ~ 纯顶了~~

0

主题

451

帖子

864

积分

职业歌手

Rank: 3Rank: 3

积分
864
发表于 2015-7-9 12:45:37 | 显示全部楼层
难道看也不能看么?看好了才好购买啊

0

主题

105

帖子

146

积分

新人会员,请认真回复,若恶意回复,直接封号

Rank: 1

积分
146
发表于 2015-7-10 16:30:24 | 显示全部楼层
自己压碟子的要支持啊!不过一张图都不上有点那个啥哦

1

主题

65

帖子

21

积分

新人会员,请认真回复,若恶意回复,直接封号

Rank: 1

积分
21
发表于 2015-7-12 17:45:06 | 显示全部楼层
非常非常非常非常非常感谢楼主分享

0

主题

12

帖子

80

积分

新人会员,请认真回复,若恶意回复,直接封号

Rank: 1

积分
80
发表于 2015-7-12 23:32:05 | 显示全部楼层
这些经典的曲目都非常耐听!好听!

0

主题

5

帖子

57

积分

新人会员,请认真回复,若恶意回复,直接封号

Rank: 1

积分
57

社区QQ达人

发表于 2015-7-13 09:22:12 | 显示全部楼层
大赞!特别喜欢她的专辑!!!!!!!!!!!!!!

0

主题

15

帖子

71

积分

新人会员,请认真回复,若恶意回复,直接封号

Rank: 1

积分
71

社区QQ达人

发表于 2015-7-13 10:46:11 | 显示全部楼层
感谢楼主的无私分享,无私奉献

0

主题

18

帖子

79

积分

新人会员,请认真回复,若恶意回复,直接封号

Rank: 1

积分
79

社区QQ达人

发表于 2015-7-13 17:46:25 | 显示全部楼层
怎么才能下载啊?找了好久才找到的啊!
您需要登录后才可以回帖 登录 | 注册

本版积分规则

快速回复 返回顶部 返回列表