查看: 2227|回复: 37

John Lennon&Plastic Ono Band《Live Peace in Toronto 1969》Mini LP原抓WAV

[复制链接]

383

主题

671

帖子

3万

积分

音乐制作人

Rank: 12Rank: 12Rank: 12

积分
35958

社区QQ达人

发表于 2015-7-7 11:50:53 | 显示全部楼层 |阅读模式
照片_20150706_180157.jpg

N久没上新,这回上个强的。

1969年,Beatles已是同床异梦,侬哥在69年发行了个人单曲Cold Turkey,一首延续Yer Blues风格的纯摇滚作品,吉他伴奏是Eric Clapton。
1969年9月,侬哥携小野洋子和一帮老友参加多伦多的摇滚音乐节,当时临时通知Eric Clapton参加,Clapton急匆匆赶到机场,在飞机上签下演出合同。
一行人临时搭班子,没进行过一次排练,好在Eric在摇滚马戏团时曾经和侬哥排演过Yer Blues,又是Cold Turkey的吉他solo,一行人决定翻唱一些经典的摇滚老歌,包括beatles时期的列侬翻唱的Dizzy miss lizzy,money等,和猫王的blue suede shoes还有Give Peace a change、Yer Blues和Cold Turkey个人作品。


当晚lennon的到来得到了热烈欢迎,他一身白衣,披发当风,演唱状态很棒;乐队没有正儿八经排练过,但却非常的默契,这样的现场配合可以让很多乐队汗颜。让人惊喜的是Cold Turkey,这也是惟一一次侬哥和Eric搭配的表演。


作为Lennon仅有的两张半现场专,这一场的收音效果很棒。歌曲很“蓝”就像封面那样蓝天白云,十分干净,蕴含和平的期盼。


第二面是Yoko Ono的演唱,一种前卫的原生朋克的感觉(这时候是1969年),十分超前的实验摇滚。

总之力荐。

01. Blue Suede Shoes
02. Money
03. Dizzy Miss Lizzy
04. Yer Blues
05. Cold Turkey
06. Give Peace A Chance
07. Don't Worry Kyoko (Mummy's Only Looking For...)
08. John, John (Let's Hope For Peace)


  1. Exact Audio Copy V1.0 beta 4 from 7. December 2014

  2. EAC 抓取日志文件从11. 四月 2015, 0:25

  3. John Lennon & Plastic Ono Band  / Live Peace in Toronto 1969

  4. 使用驱动器  :OPTIARC DVD-ROM DDU1681S   Adapter: 1  ID: 0

  5. 读取模式      : 可靠Secure
  6. 使用精确流     : 是
  7. 清空音频缓存    : 是
  8. 使用 C2 指示器 : 否

  9. 读取偏移校正:               : 6
  10. 读取 Lead-In 和 Lead-Out : 否
  11. 用静音填充抓取中丢失偏移的采样       : 是
  12. 去除首尾静音块               : 否
  13. 在CRC 计算中使用了空样本       : 是
  14. 已用接口                  : Win NT 及 2000 本地 Win32 接口

  15. 所用输出模式: : 内部 WAV 函数
  16. 样本格式    : 44.100 Hz; 16 Bit; 立体声


  17. 已抓取 CD 的 TOC

  18.      音轨 |    起始    |    长度    |  起始扇区  |  结束扇区  
  19.     --------------------------------------------
  20.       1 |  0:00.00 |  4:02.55 |      0 |  18204
  21.       2 |  4:02.55 |  3:20.72 |  18205 |  33276
  22.       3 |  7:23.52 |  3:19.45 |  33277 |  48246
  23.       4 | 10:43.22 |  4:08.28 |  48247 |  66874
  24.       5 | 14:51.50 |  3:28.60 |  66875 |  82534
  25.       6 | 18:20.35 |  3:57.30 |  82535 | 100339
  26.       7 | 22:17.65 |  4:48.62 | 100340 | 122001
  27.       8 | 27:06.52 | 12:42.65 | 122002 | 179216


  28. 范围状态及错误

  29. 已选择范围

  30.      文件名 F:\原抓\John Lennon & Plastic Ono Band  - Live Peace in Toronto 1969\John Lennon & Plastic Ono Band  - Live Peace in Toronto 1969.wav

  31.      峰值电平 97.7 %
  32.      抓取速度 3.0 X
  33.      范围质量 99.7 %
  34.      测试 CRC 51B744E9
  35.      复制 CRC 2AE1D677
  36.      复制成功

  37. 没有错误发生


  38. AccurateRip 摘要

  39. 音轨  1  精确地校准抓取  2)  [754D6400]  (AR v2)
  40. 音轨  2  精确地校准抓取  2)  [5BD5A6EA]  (AR v2)
  41. 音轨  3  精确地校准抓取  2)  [5BBF5D74]  (AR v2)
  42. 音轨  4  精确地校准抓取  2)  [43FF226A]  (AR v2)
  43. 音轨  5  精确地校准抓取  2)  [216770E0]  (AR v2)
  44. 音轨  6  精确地校准抓取  2)  [4304DABA]  (AR v2)
  45. 音轨  7  精确地校准抓取  2)  [446B9AB4]  (AR v2)
  46. 音轨  8  不能准确地校验 (确认 4)  [BE1B9930], 返回 AccurateRip [E3FF73E3]  (AR v2)

  47. 7 音轨精确校准抓取
  48. 1 音轨不能准确校验

  49. 一些音轨不能准确地校验

  50. 状态报告结尾

  51. ---- CUETools DB Plugin V2.1.4

  52. [CTDB TOCID: et81HiW7NBEB7ArVM2pr6CxGr.c-] found
  53. Submit result: insufficient quality
  54. Track | CTDB Status
  55.   1   | (8/8) Accurately ripped
  56.   2   | (8/8) Accurately ripped
  57.   3   | (8/8) Accurately ripped
  58.   4   | (8/8) Accurately ripped
  59.   5   | (8/8) Accurately ripped
  60.   6   | (8/8) Accurately ripped
  61.   7   | (8/8) Accurately ripped
  62.   8   | (8/8) Differs in 1 samples @01:06:27
  63. If you are sure that your rip contains errors, you can use CUETools to repair it.


  64. ==== 记录校验日志 734C92EC7E9875F4D153A7F41A3FBB90FCD9519F8851F9197EDE0AA2DE166AC8 ====
复制代码





付费并回复后可见下载地址。禁止转载。



购买主题 已有 37 人购买  本主题需向作者支付 10 碟CD 才能浏览



上一篇:乌兹别克斯坦美女歌手:Shahzoda《4CD》2004-2015/FLAC/BD+115/1.45G
下一篇:拉脱维亚流行:Aminata《Inner Voice》2015/FLAC/BD+115

1

主题

55

帖子

-697

积分

恶意回复被扣没分了,积分增加方法见置顶帖

积分
-697

社区QQ达人

发表于 2015-7-7 12:48:24 | 显示全部楼层
谢谢提供!!!!谢谢了1!!!!!!

评分

参与人数 1CD -400 收起 理由
CDbao -400 本站禁一切垃圾无意义回复,请修改以往恶意.

查看全部评分

 成长值: 19665

6558

主题

1万

帖子

8万

积分

音乐掌门人

Rank: 20Rank: 20Rank: 20Rank: 20Rank: 20

积分
84519

名人勋章社区QQ达人分享勋章精华帖达人灌水勋章

发表于 2015-7-7 13:36:22 | 显示全部楼层
小锟又来原抓啦。。。
嗯,浓浓的老摇滚风味,还带着爵士、蓝调风情。。。
关于链接失效的说明(度盘+115盘+快传 好友分享的说明)
http://www.cdbao.net/thread-117499-1-1.html     
紧急通告:115,快传等网盘取消了分享功能礼包码链接全部失效
http://www.cdbao.net/thread-122759-1-1.html

0

主题

91

帖子

159

积分

乐坛新星

Rank: 2

积分
159
发表于 2015-7-10 13:23:38 | 显示全部楼层
感谢楼主分享,收下了。

13

主题

175

帖子

3873

积分

当红偶像

Rank: 4

积分
3873

社区QQ达人

QQ
发表于 2015-7-24 11:30:17 | 显示全部楼层
谢谢铁柱分享,东西够多啊,谢谢

0

主题

15

帖子

52

积分

新人会员,请认真回复,若恶意回复,直接封号

Rank: 1

积分
52
发表于 2015-8-2 20:12:22 | 显示全部楼层
感谢楼主分享!!!!!!!!!!

0

主题

15

帖子

52

积分

新人会员,请认真回复,若恶意回复,直接封号

Rank: 1

积分
52
发表于 2015-8-2 20:13:57 | 显示全部楼层
感谢楼主分享!!!!!!!!!!!

0

主题

37

帖子

69

积分

新人会员,请认真回复,若恶意回复,直接封号

Rank: 1

积分
69

社区QQ达人

发表于 2015-9-16 12:28:07 | 显示全部楼层
老歌还是蛮经典的

0

主题

10

帖子

56

积分

新人会员,请认真回复,若恶意回复,直接封号

Rank: 1

积分
56
发表于 2015-12-13 20:47:13 | 显示全部楼层
好,谢谢.分享!!!!!!!!!!!!!!!

0

主题

5

帖子

45

积分

新人会员,请认真回复,若恶意回复,直接封号

Rank: 1

积分
45
发表于 2015-12-17 22:39:11 | 显示全部楼层

披头士的资源不多 谢谢楼主分享

0

主题

104

帖子

196

积分

乐坛新星

Rank: 2

积分
196
发表于 2015-12-26 22:10:56 | 显示全部楼层
谢谢楼主分享,大爱我L叔,谢谢CD包
integral

0

主题

29

帖子

88

积分

新人会员,请认真回复,若恶意回复,直接封号

Rank: 1

积分
88

社区QQ达人

发表于 2015-12-31 09:58:13 | 显示全部楼层
蓝调的味道让人欲罢不能,来一首 谢谢楼主 恭喜发财

0

主题

47

帖子

115

积分

新人会员,请认真回复,若恶意回复,直接封号

Rank: 1

积分
115

社区QQ达人

发表于 2016-1-3 21:58:00 | 显示全部楼层

蓝调的味道让人欲罢不能,来一首 谢谢楼主 恭喜发财

0

主题

21

帖子

69

积分

新人会员,请认真回复,若恶意回复,直接封号

Rank: 1

积分
69
发表于 2016-1-7 22:29:28 | 显示全部楼层
这么贵的东西,一定要好好收藏

您需要登录后才可以回帖 登录 | 注册

本版积分规则

快速回复 返回顶部 返回列表