查看: 1684|回复: 65

群星《 Now That’s What I Call Music!, Vol. 54》2015/美版/FLAC/BD+115

[复制链接] [已阅至46楼]
 成长值: 19590

6466

主题

1万

帖子

8万

积分

音乐掌门人

Rank: 20Rank: 20Rank: 20Rank: 20Rank: 20

积分
83764

名人勋章社区QQ达人分享勋章精华帖达人灌水勋章

发表于 2015-7-7 10:28:12 | 显示全部楼层 |阅读模式

注册会员,获得无损资源下载地址,享受高品质音乐。

您需要 登录 才可以下载或查看,没有帐号?注册

x
front.jpg

Various Artist - Now That’s What I Call Music!, Vol. 54 (U.S. series)

Жанр: Pop
Год издания: 2015
Издатель (лейбл): Sony Music Entertainment
Аудиокодек: FLAC (*.flac)
Тип рипа: tracks+.cue
Битрейт аудио: lossless
Продолжительность: 01:15:29
Источник (релизер): CD


01. Taylor Swift – Blank Space
02. Fall Out Boy – Centuries
03. Maroon 5 – Sugar
04. Ne-Yo & Pitbull – Time of Our Lives
05. WALK THE MOON – Shut Up and Dance
06. Ariana Grande – One Last Time
07. Nick Jonas – Jealous
08. Flo Rida – G.D.F.R. (feat. Sage the Gemini & Lookas)
9. Natalie La Rose – Somebody (feat. Jeremih)
10. Calvin Harris – Outside (feat. Ellie Goulding)
11. Lilly Wood, The Prick & Robin Schulz – Prayer In C
12. Tori Kelly – Nobody Love
13. Kelly Clarkson – Heartbeat Song
14. One Direction – Night Changes
15. OneRepublic – I Lived
16. Sam Hunt – Take Your Time
17. Alex B – Too Cool (NOW What’s Next!)
18. Banks – Beggin For Thread (NOW What’s Next!)
19. Jukebox the Ghost – Postcard (NOW What’s Next!)
20. Betty Who – All of You (NOW What’s Next!)
21. Elijah Blake – I Just Wanna... (NOW What’s Next!)


Exact Audio Copy V1.0 beta 3 from 29. August 2011
EAC extraction logfile from 4. May 2015, 22:50
Various / Now That's What I Call Music!, Vol. 54
Used drive  : hp      DVD RAM UJ8C2   Adapter: 0  ID: 0
Read mode               : Secure
Utilize accurate stream : Yes
Defeat audio cache      : Yes
Make use of C2 pointers : No
Read offset correction                      : 103
Overread into Lead-In and Lead-Out          : No
Fill up missing offset samples with silence : Yes
Delete leading and trailing silent blocks   : No
Null samples used in CRC calculations       : Yes
Used interface                              : Native Win32 interface for Win NT & 2000
Gap handling                                : Appended to previous track
Used output format              : User Defined Encoder
Selected bitrate                : 1024 kBit/s
Quality                         : High
Add ID3 tag                     : No
Command line compressor         : C:\Program Files (x86)\Exact Audio Copy\Flac\flac.exe
Additional command line options : -8 -V -T "ARTIST=%artist%" -T "TITLE=%title%" -T "ALBUM=%albumtitle%" -T "DATE=%year%" -T "TRACKNUMBER=%tracknr%" -T "GENRE=%genre%" -T "PERFORMER=%albuminterpret%" -T "COMPOSER=%composer%" %haslyrics%--tag-from-file=LYRICS="%lyricsfile%"%haslyrics% -T "ALBUMARTIST=%albumartist%" -T "DISCNUMBER=%cdnumber%" -T "TOTALDISCS=%totalcds%" -T "TOTALTRACKS=%numtracks%" -T "COMMENT=%comment%" %source% -o %dest%
TOC of the extracted CD
     Track |   Start  |  Length  | Start sector | End sector
    ---------------------------------------------------------
        1  |  0:00.00 |  3:51.12 |         0    |    17336
        2  |  3:51.12 |  3:46.05 |     17337    |    34291
        3  |  7:37.17 |  3:52.30 |     34292    |    51721
        4  | 11:29.47 |  3:31.66 |     51722    |    67612
        5  | 15:01.38 |  3:16.17 |     67613    |    82329
        6  | 18:17.55 |  3:13.56 |     82330    |    96860
        7  | 21:31.36 |  3:40.51 |     96861    |   113411
        8  | 25:12.12 |  3:07.33 |    113412    |   127469
        9  | 28:19.45 |  3:08.09 |    127470    |   141578
       10  | 31:27.54 |  3:45.02 |    141579    |   158455
       11  | 35:12.56 |  3:08.35 |    158456    |   172590
       12  | 38:21.16 |  3:21.10 |    172591    |   187675
       13  | 41:42.26 |  3:17.71 |    187676    |   202521
       14  | 45:00.22 |  3:44.19 |    202522    |   219340
       15  | 48:44.41 |  3:54.04 |    219341    |   236894
       16  | 52:38.45 |  3:41.11 |    236895    |   253480
       17  | 56:19.56 |  3:29.45 |    253481    |   269200
       18  | 59:49.26 |  4:06.32 |    269201    |   287682
       19  | 63:55.58 |  3:28.34 |    287683    |   303316
       20  | 67:24.17 |  3:56.06 |    303317    |   321022
       21  | 71:20.23 |  4:10.61 |    321023    |   339833
Track  1
     Filename C:\EAC Rips\Various Artists - Now That's What I Call Music!, Vol. 54\01 - Taylor Swift - Blank Space.wav
     Pre-gap length  0:00:02.00
     Peak level 99.8 %
     Extraction speed 2.5 X
     Track quality 100.0 %
     Test CRC 966BD14E
     Copy CRC 966BD14E
     Track not present in AccurateRip database
     Copy OK
Track  2
     Filename C:\EAC Rips\Various Artists - Now That's What I Call Music!, Vol. 54\02 - Fall Out Boy - Centuries.wav
     Peak level 98.5 %
     Extraction speed 2.0 X
     Track quality 99.9 %
     Test CRC 0025AB8C
     Copy CRC 0025AB8C
     Track not present in AccurateRip database
     Copy OK
Track  3
     Filename C:\EAC Rips\Various Artists - Now That's What I Call Music!, Vol. 54\03 - Maroon 5 - Sugar.wav
     Peak level 99.8 %
     Extraction speed 2.2 X
     Track quality 99.9 %
     Test CRC 76C3E546
     Copy CRC 76C3E546
     Track not present in AccurateRip database
     Copy OK
Track  4
     Filename C:\EAC Rips\Various Artists - Now That's What I Call Music!, Vol. 54\04 - Pitbull & Ne-Yo - Time Of Our Lives.wav
     Peak level 99.9 %
     Extraction speed 3.1 X
     Track quality 100.0 %
     Test CRC 21A32DDA
     Copy CRC 21A32DDA
     Track not present in AccurateRip database
     Copy OK
Track  5
     Filename C:\EAC Rips\Various Artists - Now That's What I Call Music!, Vol. 54\05 - Walk The Moon - Shut Up And Dance.wav
     Peak level 94.5 %
     Extraction speed 2.2 X
     Track quality 99.9 %
     Test CRC 245A982D
     Copy CRC 245A982D
     Track not present in AccurateRip database
     Copy OK
Track  6
     Filename C:\EAC Rips\Various Artists - Now That's What I Call Music!, Vol. 54\06 - Ariana Grande - One Last Time.wav
     Peak level 99.8 %
     Extraction speed 3.3 X
     Track quality 100.0 %
     Test CRC 5368E931
     Copy CRC 5368E931
     Track not present in AccurateRip database
     Copy OK
Track  7
     Filename C:\EAC Rips\Various Artists - Now That's What I Call Music!, Vol. 54\07 - Nick Jonas - Jealous.wav
     Peak level 100.0 %
     Extraction speed 3.5 X
     Track quality 100.0 %
     Test CRC CCD4F5B7
     Copy CRC CCD4F5B7
     Track not present in AccurateRip database
     Copy OK
Track  8
     Filename C:\EAC Rips\Various Artists - Now That's What I Call Music!, Vol. 54\08 - Flo Rida feat. Sage The Gemini & Lookas - GDFR.wav
     Peak level 99.8 %
     Extraction speed 3.6 X
     Track quality 100.0 %
     Test CRC 72DC9359
     Copy CRC 72DC9359
     Track not present in AccurateRip database
     Copy OK
Track  9
     Filename C:\EAC Rips\Various Artists - Now That's What I Call Music!, Vol. 54\09 - Natalie La Rose feat. Jeremih - Somebody.wav
     Peak level 99.9 %
     Extraction speed 3.7 X
     Track quality 100.0 %
     Test CRC 4C3ACE95
     Copy CRC 4C3ACE95
     Track not present in AccurateRip database
     Copy OK
Track 10
     Filename C:\EAC Rips\Various Artists - Now That's What I Call Music!, Vol. 54\10 - Calvin Harris feat. Ellie Goulding - Outside.wav
     Peak level 99.8 %
     Extraction speed 3.9 X
     Track quality 100.0 %
     Test CRC BB664C04
     Copy CRC BB664C04
     Track not present in AccurateRip database
     Copy OK
Track 11
     Filename C:\EAC Rips\Various Artists - Now That's What I Call Music!, Vol. 54\11 - Robin Schultz & Lilly Wood & The Prick - Prayer In C.wav
     Peak level 99.9 %
     Extraction speed 3.9 X
     Track quality 100.0 %
     Test CRC C1C40E1F
     Copy CRC C1C40E1F
     Track not present in AccurateRip database
     Copy OK
Track 12
     Filename C:\EAC Rips\Various Artists - Now That's What I Call Music!, Vol. 54\12 - Tori Kelly - Nobody Love.wav
     Peak level 99.8 %
     Extraction speed 4.1 X
     Track quality 100.0 %
     Test CRC 9A9752B5
     Copy CRC 9A9752B5
     Track not present in AccurateRip database
     Copy OK
Track 13
     Filename C:\EAC Rips\Various Artists - Now That's What I Call Music!, Vol. 54\13 - Kelly Clarkson - Heartbeat Song.wav
     Peak level 99.3 %
     Extraction speed 4.2 X
     Track quality 100.0 %
     Test CRC 6EF4E1C1
     Copy CRC 6EF4E1C1
     Track not present in AccurateRip database
     Copy OK
Track 14
     Filename C:\EAC Rips\Various Artists - Now That's What I Call Music!, Vol. 54\14 - One Direction - Night Changes.wav
     Peak level 98.8 %
     Extraction speed 4.4 X
     Track quality 100.0 %
     Test CRC 873FDAAE
     Copy CRC 873FDAAE
     Track not present in AccurateRip database
     Copy OK
Track 15
     Filename C:\EAC Rips\Various Artists - Now That's What I Call Music!, Vol. 54\15 - OneRepublic - I Lived.wav
     Peak level 99.9 %
     Extraction speed 3.3 X
     Track quality 99.9 %
     Test CRC E4ED21F2
     Copy CRC E4ED21F2
     Track not present in AccurateRip database
     Copy OK
Track 16
     Filename C:\EAC Rips\Various Artists - Now That's What I Call Music!, Vol. 54\16 - Sam Hunt - Take Your Time.wav
     Peak level 99.8 %
     Extraction speed 4.7 X
     Track quality 100.0 %
     Test CRC CD32925C
     Copy CRC CD32925C
     Track not present in AccurateRip database
     Copy OK
Track 17
     Filename C:\EAC Rips\Various Artists - Now That's What I Call Music!, Vol. 54\17 - Alex B. - Too Cool.wav
     Pre-gap length  0:00:03.04
     Peak level 99.8 %
     Extraction speed 4.7 X
     Track quality 100.0 %
     Test CRC DBAC2465
     Copy CRC DBAC2465
     Track not present in AccurateRip database
     Copy OK
Track 18
     Filename C:\EAC Rips\Various Artists - Now That's What I Call Music!, Vol. 54\18 - Banks - Beggin For Thread.wav
     Peak level 99.9 %
     Extraction speed 4.9 X
     Track quality 100.0 %
     Test CRC E8D67465
     Copy CRC E8D67465
     Track not present in AccurateRip database
     Copy OK
Track 19
     Filename C:\EAC Rips\Various Artists - Now That's What I Call Music!, Vol. 54\19 - Jukebox The Ghost - Postcard.wav
     Peak level 98.8 %
     Extraction speed 3.4 X
     Track quality 99.9 %
     Test CRC 6E70F677
     Copy CRC 6E70F677
     Track not present in AccurateRip database
     Copy OK
Track 20
     Filename C:\EAC Rips\Various Artists - Now That's What I Call Music!, Vol. 54\20 - Betty Who - All Of You.wav
     Peak level 99.9 %
     Extraction speed 5.1 X
     Track quality 100.0 %
     Test CRC C20E5A1A
     Copy CRC C20E5A1A
     Track not present in AccurateRip database
     Copy OK
Track 21
     Filename C:\EAC Rips\Various Artists - Now That's What I Call Music!, Vol. 54\21 - Elijah Blake - I Just Wanna.wav
     Peak level 99.6 %
     Extraction speed 5.3 X
     Track quality 100.0 %
     Test CRC 3E44B040
     Copy CRC 3E44B040
     Track not present in AccurateRip database
     Copy OK
None of the tracks are present in the AccurateRip database
No errors occurred
End of status report
---- CUETools DB Plugin V2.1.3
[CTDB TOCID: 1gHXn2le5mzw.dAXLorSRZVSlLk-] found, Submit result: 1gHXn2le5mzw.dAXLorSRZVSlLk- has been confirmed
[f94324c5] (1/1) Accurately ripped
==== Log checksum 1B3ED7CBDB36A3C5BC76C2A1C0D03DA0BE7B2D2C383AEB36D9514C46B150AD00 ====

=============================
百度下载:
游客,如果您要查看本帖隐藏内容请回复


115下载:
游客,如果您要查看本帖隐藏内容请回复
来自群组: 欧美流行



上一篇:意大利灵魂.R&B.流行:Nina Zilli《Frasi&Fumo》2015/FLAC/BD+115
下一篇:乌兹别克斯坦美女歌手:Shahzoda《4CD》2004-2015/FLAC/BD+115/1.45G

相关帖子

关于链接失效的说明(度盘+115盘+快传 好友分享的说明)
http://www.cdbao.net/thread-117499-1-1.html     
紧急通告:115,快传等网盘取消了分享功能礼包码链接全部失效
http://www.cdbao.net/thread-122759-1-1.html

0

主题

19

帖子

84

积分

新人会员,请认真回复,若恶意回复,直接封号

Rank: 1

积分
84
发表于 2015-7-7 10:54:34 | 显示全部楼层
感谢楼主分享的好东西  thanks

点评

其实我个人比较喜欢舒缓的音乐  发表于 2015-7-7 10:56

0

主题

332

帖子

999

积分

职业歌手

Rank: 3Rank: 3

积分
999
发表于 2015-7-7 12:10:50 | 显示全部楼层
感谢楼主的分享,新的now哦,呵呵

1

主题

13

帖子

591

积分

职业歌手

Rank: 3Rank: 3

积分
591

社区QQ达人

发表于 2015-7-7 13:12:18 | 显示全部楼层
Taylor Swift现在越来越火了,油管点击率超高

0

主题

31

帖子

107

积分

新人会员,请认真回复,若恶意回复,直接封号

Rank: 1

积分
107

社区QQ达人

发表于 2015-7-8 12:43:58 | 显示全部楼层
很好听得歌曲专辑 感谢楼主分享

0

主题

114

帖子

228

积分

乐坛新星

Rank: 2

积分
228
发表于 2015-7-8 14:25:58 | 显示全部楼层
把2014公告牌100单曲听了半年,该换换新的了

0

主题

44

帖子

112

积分

新人会员,请认真回复,若恶意回复,直接封号

Rank: 1

积分
112

社区QQ达人

发表于 2015-7-8 17:36:56 | 显示全部楼层
第一首曲子好熟悉,就是不知道什么名字

0

主题

237

帖子

574

积分

职业歌手

Rank: 3Rank: 3

积分
574

社区QQ达人

发表于 2015-7-8 21:46:33 | 显示全部楼层
不错,等到这个合集了。最新的音乐

0

主题

1749

帖子

2505

积分

当红偶像

Rank: 4

积分
2505
发表于 2015-7-9 10:56:03 | 显示全部楼层
谢谢楼主分享!尝尝最新的NOW……

0

主题

451

帖子

864

积分

职业歌手

Rank: 3Rank: 3

积分
864
发表于 2015-7-9 13:03:58 | 显示全部楼层
这么及时啊,now53才听完,就有了54了,赞一个

0

主题

61

帖子

140

积分

新人会员,请认真回复,若恶意回复,直接封号

Rank: 1

积分
140

社区QQ达人

发表于 2015-7-10 08:11:08 | 显示全部楼层
雖然都聽過了~~~但是無損的音質好~~~下來保存~~~感謝
integral

0

主题

551

帖子

2091

积分

当红偶像

Rank: 4

积分
2091

社区QQ达人

发表于 2015-7-10 13:45:04 | 显示全部楼层
听这样的事我年轻的音乐精神焕发,谢谢!!

0

主题

177

帖子

530

积分

职业歌手

Rank: 3Rank: 3

积分
530

社区QQ达人

发表于 2015-7-10 16:16:35 | 显示全部楼层
Now That’s What I Call Music! 支持一下

0

主题

13

帖子

-6

积分

恶意回复被扣没分了,积分增加方法见置顶帖

积分
-6
发表于 2015-7-11 07:04:28 | 显示全部楼层
★★★感谢分享精彩好音乐★★★

0

主题

18

帖子

78

积分

新人会员,请认真回复,若恶意回复,直接封号

Rank: 1

积分
78

社区QQ达人

发表于 2015-7-11 11:09:28 | 显示全部楼层
楼主辛苦 ,谢谢楼主分享!!!!!
您需要登录后才可以回帖 登录 | 注册

本版积分规则

快速回复 返回顶部 返回列表