查看: 1995|回复: 71

原抓:江智民《爱在秋天的童话3CD 》2015德国版HD [WAV+CUE/百...

[复制链接]

416

主题

783

帖子

4万

积分

天王巨星

Rank: 7Rank: 7Rank: 7

积分
42134

社区QQ达人灌水勋章分享勋章

发表于 2015-7-6 19:45:46 | 显示全部楼层 |阅读模式

注册会员,获得无损资源下载地址,享受高品质音乐。

您需要 登录 才可以下载或查看,没有帐号?注册

x
本帖最后由 微笑面对 于 2015-7-12 19:15 编辑

cover_副本.jpg
back_副本.jpg

专辑名称:《爱在秋天的童话3CD 》德国版HD
专辑艺人:江智民
出版发行:珠影白天鹅音像出版社
ISRC:CN-F23-09-305-00/A.J6
发行时间:2015年6月

专辑介绍:
高品质纯金碟,
五星发烧,HIFI至尊,至情至胜的制作;
精妙绝伦的演绎,群体结合的结晶!

德国原音还原精制金碟,HD高品质光盘,
令人窒息的纯净录音,精致悦耳音质与动感,
让每个最细微的音乐颗粒冲撞耳膜,
足以狂噬,每一双挑剔的耳朵!

专辑曲目:
CD1
01 爱在秋天的童话
02 说再见不应该在秋天
03 女孩的心思男孩你别猜
04 一水隔天涯
05 旧梦不须记
06 谢谢你的爱
07 糊涂的爱
08 哪里的天空不下雨
09 在心里从此永远有个你
10 梁山伯与朱丽叶
11 爱我的人和我爱的人
12 滚滚红尘
13 犯错
14 心雨
15 离别的秋天
16 梦中的小屋

CD2
01 驿动的心
02 上海滩
03 为爱痴狂
04 铁血丹心
05 世间始终你最好
06 掌声响起来
07 沧海一声笑
08 不装饰你的梦
09 跟往事干杯
10 为爱伤心为你痛
11 别让我一个人醉
12 其实你不懂我的心
13 为我的女人唱首歌
14 当爱已成往事
15 风中的承诺
16 不要再来伤害我

CD3
01 难舍难分
02 这一生回忆有你足够
03 痛苦时候醉寂寞
04 念亲恩
05 城里的月光
06 无路可退
07 七月
08 爱过的你还在我心里
09 那一场风花雪夜的事
10 凌晨的眼泪
11 梦寐以求
12 多情玫瑰无情人
13 我曾经爱过的人
14 狮子山下
15 梦醒时分

压缩包内附封面、封底


资源链接:
游客,如果您要查看本帖隐藏内容请回复


评分

参与人数 1CD +160 包子 +3 收起 理由
醉耳 + 160 + 3 感谢分享资源,CD包因你而精彩.

查看全部评分




上一篇:原抓:韩宝仪《抒情甜歌[经典精选]2CD》2015【WAV+CUE/百度】
下一篇:谭咏麟《飞马》WAV+LOG/整轨/百度

416

主题

783

帖子

4万

积分

天王巨星

Rank: 7Rank: 7Rank: 7

积分
42134

社区QQ达人灌水勋章分享勋章

 楼主| 发表于 2015-7-6 19:45:47 | 显示全部楼层



416

主题

783

帖子

4万

积分

天王巨星

Rank: 7Rank: 7Rank: 7

积分
42134

社区QQ达人灌水勋章分享勋章

 楼主| 发表于 2015-7-6 19:45:48 | 显示全部楼层
Exact Audio Copy V1.0 beta 3 from 29. August 2011

EAC 抓取日志文件从1. 七月 2015, 19:05

未知艺术家 / 未知标题

使用驱动器  :HL-DT-STDVDROM DH18NS40   Adapter: 2  ID: 0

读取模式 : 快速

读取偏移校正:               : 0
读取 Lead-In 和 Lead-Out : 否
用静音填充抓取中丢失偏移的采样       : 是
去除首尾静音块               : 否
在CRC 计算中使用了空样本       : 是
已用接口                  : Win NT 及 2000 本地 Win32 接口
间隙处理                  : 没检测到,因此追加到上一曲目

所用输出模式: : 内部 WAV 函数
样本格式    : 44.100 Hz; 16 Bit; 立体声


已抓取 CD 的 TOC

     音轨 |    起始    |    长度    |  起始扇区  |  结束扇区  
    --------------------------------------------
      1 |  0:00.00 |  4:10.61 |      0 |  18810
      2 |  4:10.61 |  4:03.41 |  18811 |  37076
      3 |  8:14.27 |  4:08.31 |  37077 |  55707
      4 | 12:22.58 |  4:18.47 |  55708 |  75104
      5 | 16:41.30 |  4:23.02 |  75105 |  94831
      6 | 21:04.32 |  4:55.39 |  94832 | 116995
      7 | 25:59.71 |  4:21.43 | 116996 | 136613
      8 | 30:21.39 |  4:31.28 | 136614 | 156966
      9 | 34:52.67 |  4:21.18 | 156967 | 176559
     10 | 39:14.10 |  4:19.30 | 176560 | 196014
     11 | 43:33.40 |  4:33.03 | 196015 | 216492
     12 | 48:06.43 |  4:27.12 | 216493 | 236529
     13 | 52:33.55 |  4:14.70 | 236530 | 255649
     14 | 56:48.50 |  5:00.20 | 255650 | 278169
     15 | 61:48.70 |  4:38.22 | 278170 | 299041
     16 | 66:27.17 |  4:06.27 | 299042 | 317518


音轨  1

     文件名 F:\江智民《爱在秋天的童话3CD 》德国版HD[WAV]\CD1\01 爱在秋天的童话.wav

     峰值电平 100.0 %
     抓取速度 1.6 X
     复制 CRC BF4124ED
     复制成功

音轨  2

     文件名 F:\江智民《爱在秋天的童话3CD 》德国版HD[WAV]\CD1\02 说再见不应该在秋天.wav

     峰值电平 100.0 %
     抓取速度 1.9 X
     复制 CRC 13A1D8DA
     复制成功

音轨  3

     文件名 F:\江智民《爱在秋天的童话3CD 》德国版HD[WAV]\CD1\03 女孩的心思男孩你莫猜.wav

     峰值电平 100.0 %
     抓取速度 2.1 X
     复制 CRC 08D4CF06
     复制成功

音轨  4

     文件名 F:\江智民《爱在秋天的童话3CD 》德国版HD[WAV]\CD1\04 一水隔天涯.wav

     峰值电平 100.0 %
     抓取速度 2.2 X
     复制 CRC 4C5CAF00
     复制成功

音轨  5

     文件名 F:\江智民《爱在秋天的童话3CD 》德国版HD[WAV]\CD1\05 旧梦不须记.wav

     峰值电平 100.0 %
     抓取速度 2.3 X
     复制 CRC 6B71D62B
     复制成功

音轨  6

     文件名 F:\江智民《爱在秋天的童话3CD 》德国版HD[WAV]\CD1\06 谢谢你的爱.wav

     峰值电平 100.0 %
     抓取速度 2.4 X
     复制 CRC 1D935D66
     复制成功

音轨  7

     文件名 F:\江智民《爱在秋天的童话3CD 》德国版HD[WAV]\CD1\07 糊涂的爱.wav

     峰值电平 100.0 %
     抓取速度 2.3 X
     复制 CRC 1FE24BA3
     复制成功

音轨  8

     文件名 F:\江智民《爱在秋天的童话3CD 》德国版HD[WAV]\CD1\08 哪里的天空不下雨.wav

     峰值电平 100.0 %
     抓取速度 2.5 X
     复制 CRC DAF72DC5
     复制成功

音轨  9

     文件名 F:\江智民《爱在秋天的童话3CD 》德国版HD[WAV]\CD1\09 在心里从此永远有个你.wav

     峰值电平 100.0 %
     抓取速度 2.6 X
     复制 CRC 0097C377
     复制成功

音轨 10

     文件名 F:\江智民《爱在秋天的童话3CD 》德国版HD[WAV]\CD1\10 梁山伯与朱丽叶.wav

     峰值电平 100.0 %
     抓取速度 2.6 X
     复制 CRC 8950D99F
     复制成功

音轨 11

     文件名 F:\江智民《爱在秋天的童话3CD 》德国版HD[WAV]\CD1\11 爱我的人和我爱的人.wav

     峰值电平 100.0 %
     抓取速度 2.7 X
     复制 CRC DFD9B898
     复制成功

音轨 12

     文件名 F:\江智民《爱在秋天的童话3CD 》德国版HD[WAV]\CD1\12 滚滚红尘.wav

     峰值电平 100.0 %
     抓取速度 2.7 X
     复制 CRC 8A228D8D
     复制成功

音轨 13

     文件名 F:\江智民《爱在秋天的童话3CD 》德国版HD[WAV]\CD1\13 犯错.wav

     峰值电平 100.0 %
     抓取速度 2.7 X
     复制 CRC 261A0F04
     复制成功

音轨 14

     文件名 F:\江智民《爱在秋天的童话3CD 》德国版HD[WAV]\CD1\14 心雨.wav

     峰值电平 100.0 %
     抓取速度 2.7 X
     复制 CRC 0BFA8F25
     复制成功

音轨 15

     文件名 F:\江智民《爱在秋天的童话3CD 》德国版HD[WAV]\CD1\15 离别的秋天.wav

     峰值电平 100.0 %
     抓取速度 2.8 X
     复制 CRC 9B1F402F
     复制成功

音轨 16

     文件名 F:\江智民《爱在秋天的童话3CD 》德国版HD[WAV]\CD1\16 梦中的小屋.wav

     峰值电平 100.0 %
     抓取速度 2.8 X
     复制 CRC 17BB57A1
     复制成功

没有错误发生

状态报告结尾


416

主题

783

帖子

4万

积分

天王巨星

Rank: 7Rank: 7Rank: 7

积分
42134

社区QQ达人灌水勋章分享勋章

 楼主| 发表于 2015-7-6 19:45:49 | 显示全部楼层
本帖最后由 微笑面对 于 2015-7-6 00:18 编辑

Exact Audio Copy V1.0 beta 3 from 29. August 2011

EAC 抓取日志文件从4. 七月 2015, 21:14

未知艺术家 / 未知标题

使用驱动器  :HL-DT-STDVDROM DH18NS40   Adapter: 2  ID: 0

读取模式 : 快速

读取偏移校正:               : 0
读取 Lead-In 和 Lead-Out : 否
用静音填充抓取中丢失偏移的采样       : 是
去除首尾静音块               : 否
在CRC 计算中使用了空样本       : 是
已用接口                  : Win NT 及 2000 本地 Win32 接口

所用输出模式: : 内部 WAV 函数
样本格式    : 44.100 Hz; 16 Bit; 立体声


已抓取 CD 的 TOC

     音轨 |    起始    |    长度    |  起始扇区  |  结束扇区  
    --------------------------------------------
      1 |  0:00.00 |  5:07.69 |      0 |  23093
      2 |  5:07.69 |  3:24.07 |  23094 |  38400
      3 |  8:32.01 |  5:19.36 |  38401 |  62361
      4 | 13:51.37 |  2:56.62 |  62362 |  75623
      5 | 16:48.24 |  2:48.49 |  75624 |  88272
      6 | 19:36.73 |  5:31.13 |  88273 | 113110
      7 | 25:08.11 |  4:13.63 | 113111 | 132148
      8 | 29:21.74 |  4:07.21 | 132149 | 150694
      9 | 33:29.20 |  5:05.11 | 150695 | 173580
     10 | 38:34.31 |  5:27.64 | 173581 | 198169
     11 | 44:02.20 |  3:54.08 | 198170 | 215727
     12 | 47:56.28 |  3:29.39 | 215728 | 231441
     13 | 51:25.67 |  4:42.57 | 231442 | 252648
     14 | 56:08.49 |  4:46.05 | 252649 | 274103
     15 | 60:54.54 |  5:34.11 | 274104 | 299164
     16 | 66:28.65 |  4:47.27 | 299165 | 320716


范围状态及错误

已选择范围

     文件名 F:\江智民《爱在秋天的童话3CD 》德国版HD\CD2\CDImage.wav

     峰值电平 100.0 %
     抓取速度 2.8 X
     复制 CRC 5C0089A2
     复制成功

没有错误发生

状态报告结尾


416

主题

783

帖子

4万

积分

天王巨星

Rank: 7Rank: 7Rank: 7

积分
42134

社区QQ达人灌水勋章分享勋章

 楼主| 发表于 2015-7-6 19:45:50 | 显示全部楼层
Exact Audio Copy V1.0 beta 3 from 29. August 2011

EAC 抓取日志文件从5. 七月 2015, 12:35

未知艺术家 / 未知标题

使用驱动器  :HL-DT-STDVDROM DH18NS40   Adapter: 2  ID: 0

读取模式 : 快速

读取偏移校正:               : 0
读取 Lead-In 和 Lead-Out : 否
用静音填充抓取中丢失偏移的采样       : 是
去除首尾静音块               : 否
在CRC 计算中使用了空样本       : 是
已用接口                  : Win NT 及 2000 本地 Win32 接口

所用输出模式: : 内部 WAV 函数
样本格式    : 44.100 Hz; 16 Bit; 立体声


已抓取 CD 的 TOC

     音轨 |    起始    |    长度    |  起始扇区  |  结束扇区  
    --------------------------------------------
      1 |  0:00.00 |  4:44.68 |      0 |  21367
      2 |  4:44.68 |  4:30.59 |  21368 |  41676
      3 |  9:15.52 |  4:57.09 |  41677 |  63960
      4 | 14:12.61 |  4:34.25 |  63961 |  84535
      5 | 18:47.11 |  5:49.29 |  84536 | 110739
      6 | 24:36.40 |  4:14.54 | 110740 | 129843
      7 | 28:51.19 |  4:33.68 | 129844 | 150386
      8 | 33:25.12 |  4:30.52 | 150387 | 170688
      9 | 37:55.64 |  4:54.72 | 170689 | 192810
     10 | 42:50.61 |  4:30.03 | 192811 | 213063
     11 | 47:20.64 |  3:59.44 | 213064 | 231032
     12 | 51:20.33 |  5:34.69 | 231033 | 256151
     13 | 56:55.27 |  4:18.28 | 256152 | 275529
     14 | 61:13.55 |  4:20.16 | 275530 | 295045
     15 | 65:33.71 |  4:23.24 | 295046 | 314794


范围状态及错误

已选择范围

     文件名 F:\江智民《爱在秋天的童话3CD 》德国版HD\CD3\CDImage.wav

     峰值电平 89.1 %
     抓取速度 2.8 X
     复制 CRC 31C35540
     复制成功

没有错误发生

状态报告结尾


0

主题

13

帖子

158

积分

乐坛新星

Rank: 2

积分
158
发表于 2015-7-6 20:09:28 | 显示全部楼层
样本格式    : 44.100 Hz; 16 Bit; 立体声

0

主题

99

帖子

323

积分

乐坛新星

Rank: 2

积分
323
发表于 2015-7-7 18:04:10 | 显示全部楼层
I like to try this set of disks. Thanks

1

主题

289

帖子

365

积分

乐坛新星

Rank: 2

积分
365
发表于 2015-7-9 10:25:13 | 显示全部楼层
好听的歌曲下来听听谢谢楼主。。。。。。。。。。。。。
integral

0

主题

94

帖子

711

积分

职业歌手

Rank: 3Rank: 3

积分
711

社区QQ达人

发表于 2015-7-9 11:16:02 | 显示全部楼层
谢谢分享!!
integral

0

主题

94

帖子

711

积分

职业歌手

Rank: 3Rank: 3

积分
711

社区QQ达人

发表于 2015-7-9 11:16:14 | 显示全部楼层
谢谢分享!!

0

主题

398

帖子

568

积分

职业歌手

Rank: 3Rank: 3

积分
568

社区QQ达人

发表于 2015-7-10 08:51:35 | 显示全部楼层
确实音效做的很好。楼主辛苦了。

6

主题

503

帖子

486

积分

职业歌手

Rank: 3Rank: 3

积分
486
发表于 2015-7-11 14:41:33 | 显示全部楼层
看不到曲目,但应该不错的选择。谢分享。

2

主题

312

帖子

942

积分

职业歌手

Rank: 3Rank: 3

积分
942

社区QQ达人

发表于 2015-7-11 17:05:15 | 显示全部楼层
支持楼主,支持CABAO,感谢分享

0

主题

50

帖子

324

积分

乐坛新星

Rank: 2

积分
324
发表于 2015-7-12 06:55:32 | 显示全部楼层
keximeiyou可惜没有BB,只能帮顶了。谢谢发布共享!

0

主题

575

帖子

1085

积分

职业歌手

Rank: 3Rank: 3

积分
1085

社区QQ达人

发表于 2015-7-12 20:52:40 | 显示全部楼层
很喜欢的声音,收下慢慢欣赏,感谢楼主分享,辛苦辛苦!!!
您需要登录后才可以回帖 登录 | 注册

本版积分规则

快速回复 返回顶部 返回列表