CD包论坛导航

CD包|聊天灌水,新人报到
聊天灌水,会员生活音乐推荐,乐评资讯CD帮-积分索求音乐资源新人报到,版规学习
CD包|音乐知识,刻录交流
音频知识,播放器交流刻录讨论,软件教程发烧设备-音箱耳机声卡CD包 - 合作商家包子 积分兑换HIFIMAN 头领科技
CD包|精选原抓资源下载
CD荐-自制推荐精选集原抓CD无损专辑发布
CD包|稀有无损音乐资源
稀有音乐资源稀有视频资源黑胶音乐母带音乐
CD包|无损音乐CD打包下载
华语无损音乐专辑欧美无损音乐专辑日韩无损音乐专辑古典无损音乐专辑发烧试音无损专辑无损单曲下载
CD包|高音质音乐专辑下载
320KMP3 高音质专辑下载 iTunes Plus AAC 下载摇滚金属专辑下载DJ,Disco,House,Dance,Trance等下载汽车音乐CD胎教及儿童音乐原声,纯音,器乐及其他高清MV,演唱会,综艺
CD包|ACG无损音乐下载
ACG游戏无损音乐下载ACG动画无损音乐下载
CD包|网站站内交流
失效回收站务公开
CD包|网站管理专版
管理组 - 管理人员交流版块小黑屋 - 负分用户升级转正版块
查看: 1908|回复: 60

原抓:韦唯《爱的奉献 黑胶CD》铁板盒 2015 [WAV+CUE/百度]

[复制链接]

416

主题

785

帖子

4万

积分

天王巨星

Rank: 7Rank: 7Rank: 7

积分
43183

社区QQ达人灌水勋章分享勋章

发表于 2015-7-3 13:48:50 | 显示全部楼层 |阅读模式

注册会员,获得无损资源下载地址,享受高品质音乐。

您需要 登录 才可以下载或查看,没有帐号?注册

x
本帖最后由 微笑面对 于 2015-7-3 13:48 编辑

cover.jpg

专辑名称:爱的奉献黑胶CD
专辑艺人:韦唯
出版发行:山东音像出版社
ISRC:CN-E26-08-6390-00/A.J6
发行时间:2015

介绍:
中国歌坛巨星成名金曲专辑,
你会清晰感到一种激昂的新鲜,
一种热情的饱满,一种风发的开拓,
这是一套难能可贵的珍藏金碟!

专辑曲目:
01 爱的奉献
02 亚洲雄风
03 爱我中华
04 命运不是辘轳
05 十月是你的生日
06 共同的家园
07 我心中的故事
08 爱过才明白
09 温馨的世界
10 真情属于你
11 花儿为什么这样红
12 让我再看你一眼
13 彩虹
14 属鸟的女人
15 月亮情歌
16 走过来依然是你
17 你是一个无法等到的人



资源下载:
游客,如果您要查看本帖隐藏内容请回复


评分

参与人数 1CD +200 包子 +3 收起 理由
最终之战 + 200 + 3 感谢分享资源,CD包因你而精彩.

查看全部评分




上一篇:蔡琴《伤心小站 SACD》(限量版)WAV+CUE/快传+百度
下一篇:廿四味 - 《Bring It On!》 WAV/分轨/百度

416

主题

785

帖子

4万

积分

天王巨星

Rank: 7Rank: 7Rank: 7

积分
43183

社区QQ达人灌水勋章分享勋章

 楼主| 发表于 2015-7-3 13:48:51 | 显示全部楼层
Exact Audio Copy V1.0 beta 3 from 29. August 2011

EAC 抓取日志文件从2. 七月 2015, 21:02

- / -

使用驱动器  :HL-DT-STDVDROM DH18NS40   Adapter: 2  ID: 0

读取模式 : 快速

读取偏移校正:               : 0
读取 Lead-In 和 Lead-Out : 否
用静音填充抓取中丢失偏移的采样       : 是
去除首尾静音块               : 否
在CRC 计算中使用了空样本       : 是
已用接口                  : Win NT 及 2000 本地 Win32 接口

所用输出模式: : 内部 WAV 函数
样本格式    : 44.100 Hz; 16 Bit; 立体声


已抓取 CD 的 TOC

     音轨 |    起始    |    长度    |  起始扇区  |  结束扇区  
    --------------------------------------------
      1 |  0:00.00 |  4:00.04 |      0 |  18003
      2 |  4:00.04 |  4:59.01 |  18004 |  40429
      3 |  8:59.05 |  4:35.65 |  40430 |  61119
      4 | 13:34.70 |  3:09.24 |  61120 |  75318
      5 | 16:44.19 |  5:31.23 |  75319 | 100166
      6 | 22:15.42 |  5:01.65 | 100167 | 122806
      7 | 27:17.32 |  4:55.41 | 122807 | 144972
      8 | 32:12.73 |  4:34.52 | 144973 | 165574
      9 | 36:47.50 |  4:21.13 | 165575 | 185162
     10 | 41:08.63 |  4:51.11 | 185163 | 206998
     11 | 45:59.74 |  4:02.65 | 206999 | 225213
     12 | 50:02.64 |  4:30.35 | 225214 | 245498
     13 | 54:33.24 |  4:34.38 | 245499 | 266086
     14 | 59:07.62 |  3:48.60 | 266087 | 283246
     15 | 62:56.47 |  4:30.48 | 283247 | 303544
     16 | 67:27.20 |  3:58.05 | 303545 | 321399
     17 | 71:25.25 |  4:53.65 | 321400 | 343439


范围状态及错误

已选择范围

     文件名 F:\韦唯《爱的奉献 黑胶CD》\CDImage.wav

     峰值电平 100.0 %
     抓取速度 2.8 X
     复制 CRC 42A56448
     复制成功

没有错误发生

状态报告结尾


416

主题

785

帖子

4万

积分

天王巨星

Rank: 7Rank: 7Rank: 7

积分
43183

社区QQ达人灌水勋章分享勋章

 楼主| 发表于 2015-7-3 13:48:52 | 显示全部楼层


2

主题

447

帖子

323

积分

乐坛新星

Rank: 2

积分
323

社区QQ达人

发表于 2015-7-3 14:07:54 | 显示全部楼层
少有的经典,要收藏,感谢楼主分享。。。。

1

主题

293

帖子

356

积分

乐坛新星

Rank: 2

积分
356
发表于 2015-7-3 17:14:35 | 显示全部楼层
本帖最后由 asienmann 于 2015-12-29 07:20 编辑

唱韵细腻自然,别具迷人纯美吸引力。

4

主题

2687

帖子

1363

积分

当红偶像

Rank: 4

积分
1363

社区QQ达人灌水勋章

发表于 2015-7-3 22:06:46 | 显示全部楼层

好久没有大姐的声音了 下来听听 感谢楼主分享

0

主题

75

帖子

370

积分

乐坛新星

Rank: 2

积分
370

社区QQ达人

发表于 2015-7-4 06:30:06 | 显示全部楼层
都是经典歌曲,非常感谢分享。
integral

0

主题

278

帖子

-881

积分

恶意回复被扣没分了,积分增加方法见置顶帖

积分
-881
发表于 2015-7-4 08:29:43 | 显示全部楼层
谢谢楼主的分享,楼主辛苦了

0

主题

146

帖子

275

积分

乐坛新星

Rank: 2

积分
275
发表于 2015-7-4 11:34:23 | 显示全部楼层
谢谢分享,收藏下载了,经典的资源。

1

主题

44

帖子

154

积分

乐坛新星

Rank: 2

积分
154
发表于 2015-7-4 13:12:38 | 显示全部楼层
这是她最经典的一首歌曲了,好像后来再野超不过这个高度

1

主题

296

帖子

415

积分

乐坛新星

Rank: 2

积分
415

社区QQ达人

发表于 2015-7-4 15:44:20 | 显示全部楼层
下来听听 感谢楼主分享

0

主题

30

帖子

95

积分

新人会员,请认真回复,若恶意回复,直接封号

Rank: 1

积分
95

社区QQ达人

发表于 2015-7-4 20:48:30 | 显示全部楼层

下来听听 感谢楼主分享

0

主题

31

帖子

100

积分

新人会员,请认真回复,若恶意回复,直接封号

Rank: 1

积分
100

社区QQ达人

发表于 2015-7-5 10:57:46 | 显示全部楼层
谢谢楼主,感谢分享好碟子。

1

主题

705

帖子

974

积分

职业歌手

Rank: 3Rank: 3

积分
974

社区QQ达人

发表于 2015-7-5 12:23:57 | 显示全部楼层
少有的经典,要收藏,感谢楼主分享。。

0

主题

82

帖子

573

积分

职业歌手

Rank: 3Rank: 3

积分
573

社区QQ达人

发表于 2015-7-5 20:24:43 | 显示全部楼层
感谢分享!
您需要登录后才可以回帖 登录 | 注册

本版积分规则

快速回复 返回顶部 返回列表