查看: 6083|回复: 206

原抓:孙露2015新专辑 《后会无期》HQ2CD[WAV+CUE/百度]

  [复制链接]

416

主题

783

帖子

4万

积分

天王巨星

Rank: 7Rank: 7Rank: 7

积分
42134

社区QQ达人灌水勋章分享勋章

发表于 2015-6-30 22:03:44 | 显示全部楼层 |阅读模式

注册会员,获得无损资源下载地址,享受高品质音乐。

您需要 登录 才可以下载或查看,没有帐号?注册

x
本帖最后由 微笑面对 于 2015-6-30 22:03 编辑

  cover_副本.jpg
back_副本.jpg
专辑名称:《后会无期》HQCD
专辑艺人:孙露
出版发行:珠影白天鹅音像出版社
ISRC编码: CN-F23-10-553-00/A.J6
发行时间:2015.05

介绍:
寂寞似梦,风情万种,让人心痛。
高清音质,打造完美品质。

曲目
CD1
01. 后会无期   
02. 却上心头    
03. 爱你的宿命   
04. 梦一场    
05. 棋子   
06. 女人花    
07. 鬼迷心窍   
08. 如果这都不算爱    
09. 漂洋过海来看你   
10. 爱太深   
11. 转角遇到你   
12. 是否得不到的才最珍贵   
13. 原来你也在这里   
14. 爱人别走    
15. 朋友别哭   
16. 用心良苦    
17. 半梦半醒之间    
18. 我终于失去了你   

CD2
01. 赤裸离开 
02. 变了心的人 
03. 男人的好 
04. 多想把你抱住 
05. 爱到不能爱 
06. 做你的心上人 
07. 一生爱你千百回 
08. 北京爱情   
09. 让我喜欢让我忧 
10. 愿得一人心 
11. 下定决心忘记你 
12. 想你想的很辛苦 
13. 如果没有你 
14. 小情歌
15. 别再说 
16. 再度重相逢
17. 爱是你给我的毒 



1、本音乐仅供试听、若喜欢,请购买正版CD。
2、版权归唱片公司所有,严禁用于任何商业或盈利用途。
3、请下载后24小时内删除。


资源链接:
游客,如果您要查看本帖隐藏内容请回复


点评

说明:以后凡是【微笑原抓】资源,一律进行【主题售价200碟CD】,预告下期原抓资源:江智民-爱在秋天的童话3CD等!  发表于 2015-7-3 22:02

评分

参与人数 1CD +200 包子 +3 收起 理由
CDbao + 200 + 3 感谢分享资源,CD包因你而精彩.

查看全部评分




上一篇:黑鸭子组合 《黑鸭子与马头琴 》FLAC+CUE/快传+百度
下一篇:谭咏麟《精装谭咏麟·小生怕怕》WAV+LOG/整轨/百度

0

主题

404

帖子

1147

积分

职业歌手

Rank: 3Rank: 3

积分
1147
发表于 2015-7-1 08:26:26 | 显示全部楼层
孙妹妹的歌声总是那么耐听,谢谢分享!

416

主题

783

帖子

4万

积分

天王巨星

Rank: 7Rank: 7Rank: 7

积分
42134

社区QQ达人灌水勋章分享勋章

 楼主| 发表于 2015-6-30 22:03:45 | 显示全部楼层
本帖最后由 微笑面对 于 2015-7-1 14:28 编辑



CD1:  http://pan.baidu.com/s/1ntkTtDv  密码:baqn


416

主题

783

帖子

4万

积分

天王巨星

Rank: 7Rank: 7Rank: 7

积分
42134

社区QQ达人灌水勋章分享勋章

 楼主| 发表于 2015-6-30 22:03:46 | 显示全部楼层
Exact Audio Copy V1.0 beta 3 from 29. August 2011

EAC 抓取日志文件从25. 六月 2015, 22:38

- / -

使用驱动器  :HL-DT-STDVDROM DH18NS40   Adapter: 2  ID: 0

读取模式 : 快速

读取偏移校正:               : 0
读取 Lead-In 和 Lead-Out : 否
用静音填充抓取中丢失偏移的采样       : 是
去除首尾静音块               : 否
在CRC 计算中使用了空样本       : 是
已用接口                  : Win NT 及 2000 本地 Win32 接口
间隙处理                  : 追加到上一曲目

所用输出模式: : 内部 WAV 函数
样本格式    : 44.100 Hz; 16 Bit; 立体声


已抓取 CD 的 TOC

     音轨 |    起始    |    长度    |  起始扇区  |  结束扇区  
    --------------------------------------------
      1 |  0:00.00 |  3:51.06 |      0 |  17330
      2 |  3:51.06 |  2:44.32 |  17331 |  29662
      3 |  6:35.38 |  3:58.25 |  29663 |  47537
      4 | 10:33.63 |  3:47.67 |  47538 |  64629
      5 | 14:21.55 |  4:06.71 |  64630 |  83150
      6 | 18:28.51 |  4:38.36 |  83151 | 104036
      7 | 23:07.12 |  4:12.42 | 104037 | 122978
      8 | 27:19.54 |  3:44.64 | 122979 | 139842
      9 | 31:04.43 |  5:28.54 | 139843 | 164496
     10 | 36:33.22 |  4:19.66 | 164497 | 183987
     11 | 40:53.13 |  4:24.72 | 183988 | 203859
     12 | 45:18.10 |  4:21.59 | 203860 | 223493
     13 | 49:39.69 |  4:31.13 | 223494 | 243831
     14 | 54:11.07 |  3:55.21 | 243832 | 261477
     15 | 58:06.28 |  4:16.54 | 261478 | 280731
     16 | 62:23.07 |  4:58.00 | 280732 | 303081
     17 | 67:21.07 |  3:51.22 | 303082 | 320428
     18 | 71:12.29 |  5:01.46 | 320429 | 343049


音轨  1

     文件名 C:\Users\Administrator\Desktop\孙露《后会无期2CD》HQCD\01 后会无期.wav

     前间隙长度  0:00:02.00

     峰值电平 100.0 %
     抓取速度 1.5 X
     复制 CRC 9B4B2D98
     复制成功

音轨  2

     文件名 C:\Users\Administrator\Desktop\孙露《后会无期2CD》HQCD\02 却上心头.wav

     前间隙长度  0:00:02.00

     峰值电平 100.0 %
     抓取速度 1.4 X
     复制 CRC 3C8222F8
     复制成功

音轨  3

     文件名 C:\Users\Administrator\Desktop\孙露《后会无期2CD》HQCD\03 爱你的宿命.wav

     前间隙长度  0:00:02.00

     峰值电平 100.0 %
     抓取速度 2.0 X
     复制 CRC 6E5CFF58
     复制成功

音轨  4

     文件名 C:\Users\Administrator\Desktop\孙露《后会无期2CD》HQCD\04 梦一场.wav

     前间隙长度  0:00:02.00

     峰值电平 100.0 %
     抓取速度 2.1 X
     复制 CRC C030AA95
     复制成功

音轨  5

     文件名 C:\Users\Administrator\Desktop\孙露《后会无期2CD》HQCD\05 棋子.wav

     前间隙长度  0:00:02.00

     峰值电平 100.0 %
     抓取速度 2.2 X
     复制 CRC 2B1759B3
     复制成功

音轨  6

     文件名 C:\Users\Administrator\Desktop\孙露《后会无期2CD》HQCD\06 女人花.wav

     前间隙长度  0:00:02.00

     峰值电平 100.0 %
     抓取速度 2.2 X
     复制 CRC 9044E15B
     复制成功

音轨  7

     文件名 C:\Users\Administrator\Desktop\孙露《后会无期2CD》HQCD\07 鬼迷心窍.wav

     前间隙长度  0:00:02.00

     峰值电平 100.0 %
     抓取速度 2.3 X
     复制 CRC B0E30413
     复制成功

音轨  8

     文件名 C:\Users\Administrator\Desktop\孙露《后会无期2CD》HQCD\08 如果这都不算爱.wav

     前间隙长度  0:00:02.00

     峰值电平 100.0 %
     抓取速度 2.4 X
     复制 CRC E570A50A
     复制成功

音轨  9

     文件名 C:\Users\Administrator\Desktop\孙露《后会无期2CD》HQCD\09 漂洋过海来看你.wav

     前间隙长度  0:00:02.00

     峰值电平 94.4 %
     抓取速度 2.5 X
     复制 CRC EA14E55F
     复制成功

音轨 10

     文件名 C:\Users\Administrator\Desktop\孙露《后会无期2CD》HQCD\10 爱太深.wav

     前间隙长度  0:00:02.00

     峰值电平 100.0 %
     抓取速度 2.6 X
     复制 CRC 81DC5838
     复制成功

音轨 11

     文件名 C:\Users\Administrator\Desktop\孙露《后会无期2CD》HQCD\11 转角遇到你.wav

     前间隙长度  0:00:02.00

     峰值电平 100.0 %
     抓取速度 2.6 X
     复制 CRC 394E3D53
     复制成功

音轨 12

     文件名 C:\Users\Administrator\Desktop\孙露《后会无期2CD》HQCD\12 是否得不到的才最珍贵.wav

     前间隙长度  0:00:02.00

     峰值电平 100.0 %
     抓取速度 2.6 X
     复制 CRC 89BEFD2C
     复制成功

音轨 13

     文件名 C:\Users\Administrator\Desktop\孙露《后会无期2CD》HQCD\13 原来你也在这里.wav

     前间隙长度  0:00:02.00

     峰值电平 100.0 %
     抓取速度 2.7 X
     复制 CRC 643BEB4C
     复制成功

音轨 14

     文件名 C:\Users\Administrator\Desktop\孙露《后会无期2CD》HQCD\14 爱人别走.wav

     前间隙长度  0:00:02.00

     峰值电平 98.8 %
     抓取速度 2.7 X
     复制 CRC 3E4C3CE5
     复制成功

音轨 15

     文件名 C:\Users\Administrator\Desktop\孙露《后会无期2CD》HQCD\15 朋友别哭.wav

     前间隙长度  0:00:02.00

     峰值电平 94.4 %
     抓取速度 2.7 X
     复制 CRC 14C8C56A
     复制成功

音轨 16

     文件名 C:\Users\Administrator\Desktop\孙露《后会无期2CD》HQCD\16 用心良苦.wav

     前间隙长度  0:00:02.00

     峰值电平 94.4 %
     抓取速度 2.8 X
     复制 CRC 18499FA4
     复制成功

音轨 17

     文件名 C:\Users\Administrator\Desktop\孙露《后会无期2CD》HQCD\17 半梦半醒之间.wav

     前间隙长度  0:00:02.00

     峰值电平 100.0 %
     抓取速度 2.8 X
     复制 CRC 73983158
     复制成功

音轨 18

     文件名 C:\Users\Administrator\Desktop\孙露《后会无期2CD》HQCD\18 我终于失去了你.wav

     前间隙长度  0:00:02.00

     峰值电平 100.0 %
     抓取速度 2.9 X
     复制 CRC D85036A4
     复制成功

没有错误发生

状态报告结尾


416

主题

783

帖子

4万

积分

天王巨星

Rank: 7Rank: 7Rank: 7

积分
42134

社区QQ达人灌水勋章分享勋章

 楼主| 发表于 2015-6-30 22:03:47 | 显示全部楼层
本帖最后由 微笑面对 于 2015-6-30 22:02 编辑

Exact Audio Copy V1.0 beta 3 from 29. August 2011

EAC 抓取日志文件从25. 六月 2015, 20:46

- / -

使用驱动器  :HL-DT-STDVDROM DH18NS40   Adapter: 2  ID: 0

读取模式 : 快速

读取偏移校正:               : 0
读取 Lead-In 和 Lead-Out : 否
用静音填充抓取中丢失偏移的采样       : 是
去除首尾静音块               : 否
在CRC 计算中使用了空样本       : 是
已用接口                  : Win NT 及 2000 本地 Win32 接口
间隙处理                  : 追加到上一曲目

所用输出模式: : 内部 WAV 函数
样本格式    : 44.100 Hz; 16 Bit; 立体声


已抓取 CD 的 TOC

     音轨 |    起始    |    长度    |  起始扇区  |  结束扇区  
    --------------------------------------------
      1 |  0:00.00 |  3:59.10 |      0 |  17934
      2 |  3:59.10 |  4:09.69 |  17935 |  36678
      3 |  8:09.04 |  3:58.07 |  36679 |  54535
      4 | 12:07.11 |  4:43.32 |  54536 |  75792
      5 | 16:50.43 |  5:06.23 |  75793 |  98765
      6 | 21:56.66 |  4:44.38 |  98766 | 120103
      7 | 26:41.29 |  4:50.53 | 120104 | 141906
      8 | 31:32.07 |  3:51.29 | 141907 | 159260
      9 | 35:23.36 |  4:59.73 | 159261 | 181758
     10 | 40:23.34 |  4:42.27 | 181759 | 202935
     11 | 45:05.61 |  4:09.72 | 202936 | 221682
     12 | 49:15.58 |  3:33.07 | 221683 | 237664
     13 | 52:48.65 |  4:50.69 | 237665 | 259483
     14 | 57:39.59 |  4:37.71 | 259484 | 280329
     15 | 62:17.55 |  3:49.02 | 280330 | 297506
     16 | 66:06.57 |  3:24.41 | 297507 | 312847
     17 | 69:31.23 |  4:26.17 | 312848 | 332814


音轨  1

     文件名 C:\Users\Administrator\Desktop\孙露《后会无期2CD》\01 赤裸离开.wav

     前间隙长度  0:00:02.00

     峰值电平 82.2 %
     抓取速度 1.5 X
     复制 CRC 75191920
     复制成功

音轨  2

     文件名 C:\Users\Administrator\Desktop\孙露《后会无期2CD》\02 变了心的人.wav

     前间隙长度  0:00:02.00

     峰值电平 100.0 %
     抓取速度 1.6 X
     复制 CRC 5718A6C2
     复制成功

音轨  3

     文件名 C:\Users\Administrator\Desktop\孙露《后会无期2CD》\03 男人的好.wav

     前间隙长度  0:00:02.00

     峰值电平 100.0 %
     抓取速度 1.8 X
     复制 CRC A7FBA8BC
     复制成功

音轨  4

     文件名 C:\Users\Administrator\Desktop\孙露《后会无期2CD》\04 多想把你抱住.wav

     前间隙长度  0:00:02.00

     峰值电平 93.3 %
     抓取速度 2.2 X
     复制 CRC 38D9DB06
     复制成功

音轨  5

     文件名 C:\Users\Administrator\Desktop\孙露《后会无期2CD》\05 爱到不能爱.wav

     前间隙长度  0:00:02.00

     峰值电平 100.0 %
     抓取速度 2.3 X
     复制 CRC B0ECFEDE
     复制成功

音轨  6

     文件名 C:\Users\Administrator\Desktop\孙露《后会无期2CD》\06 做你的心上人.wav

     前间隙长度  0:00:02.00

     峰值电平 100.0 %
     抓取速度 2.4 X
     复制 CRC C46712B6
     复制成功

音轨  7

     文件名 C:\Users\Administrator\Desktop\孙露《后会无期2CD》\07 一生爱你千百回.wav

     前间隙长度  0:00:02.00

     峰值电平 100.0 %
     抓取速度 2.5 X
     复制 CRC 0DF5981E
     复制成功

音轨  8

     文件名 C:\Users\Administrator\Desktop\孙露《后会无期2CD》\08 北京爱情.wav

     前间隙长度  0:00:02.00

     峰值电平 100.0 %
     抓取速度 2.4 X
     复制 CRC 6F80292D
     复制成功

音轨  9

     文件名 C:\Users\Administrator\Desktop\孙露《后会无期2CD》\09让我喜欢让我忧.wav

     前间隙长度  0:00:02.00

     峰值电平 100.0 %
     抓取速度 2.6 X
     复制 CRC 319CB956
     复制成功

音轨 10

     文件名 C:\Users\Administrator\Desktop\孙露《后会无期2CD》\10 愿得一人心.wav

     前间隙长度  0:00:02.00

     峰值电平 100.0 %
     抓取速度 2.6 X
     复制 CRC DB90F329
     复制成功

音轨 11

     文件名 C:\Users\Administrator\Desktop\孙露《后会无期2CD》\11 下定决心忘记你.wav

     前间隙长度  0:00:02.00

     峰值电平 100.0 %
     抓取速度 2.6 X
     复制 CRC 4ECD25E9
     复制成功

音轨 12

     文件名 C:\Users\Administrator\Desktop\孙露《后会无期2CD》\12 想你想的很辛苦.wav

     前间隙长度  0:00:02.00

     峰值电平 100.0 %
     抓取速度 2.4 X
     复制 CRC 6B4672ED
     复制成功

音轨 13

     文件名 C:\Users\Administrator\Desktop\孙露《后会无期2CD》\13 如果没有你.wav

     前间隙长度  0:00:02.00

     峰值电平 99.9 %
     抓取速度 2.7 X
     复制 CRC 0169B724
     复制成功

音轨 14

     文件名 C:\Users\Administrator\Desktop\孙露《后会无期2CD》\14 小情歌.wav

     前间隙长度  0:00:02.00

     峰值电平 99.9 %
     抓取速度 2.7 X
     复制 CRC F1CF8741
     复制成功

音轨 15

     文件名 C:\Users\Administrator\Desktop\孙露《后会无期2CD》\15 别再说.wav

     前间隙长度  0:00:02.00

     峰值电平 96.6 %
     抓取速度 2.7 X
     复制 CRC 4405674B
     复制成功

音轨 16

     文件名 C:\Users\Administrator\Desktop\孙露《后会无期2CD》\16 再度重相逢.wav

     前间隙长度  0:00:02.00

     可疑位置 0:03:10

     峰值电平 100.0 %
     抓取速度 2.6 X
     复制 CRC 15999006
     复制结束

音轨 17

     文件名 C:\Users\Administrator\Desktop\孙露《后会无期2CD》\17 爱是你给我的毒.wav

     前间隙长度  0:00:02.00

     峰值电平 93.2 %
     抓取速度 2.7 X
     复制 CRC D46C9F10
     复制成功

出现错误

状态报告结尾


0

主题

88

帖子

71

积分

新人会员,请认真回复,若恶意回复,直接封号

Rank: 1

积分
71
发表于 2015-6-30 22:17:12 | 显示全部楼层
支持孙露,谢谢分享

0

主题

17

帖子

87

积分

新人会员,请认真回复,若恶意回复,直接封号

Rank: 1

积分
87

社区QQ达人

发表于 2015-6-30 22:45:32 | 显示全部楼层
很喜欢孙露的歌曲,已经停了有两年多时间,今年竟然有更新

0

主题

228

帖子

4

积分

新人会员,请认真回复,若恶意回复,直接封号

Rank: 1

积分
4

社区QQ达人

发表于 2015-6-30 23:34:21 | 显示全部楼层
很喜欢孙露的歌曲,已经停了有两年多时间,今年竟然有更新

0

主题

55

帖子

129

积分

新人会员,请认真回复,若恶意回复,直接封号

Rank: 1

积分
129

社区QQ达人

发表于 2015-6-30 23:34:45 | 显示全部楼层
很喜欢孙露的歌曲,已经停了有两年多时间,今年竟然有更新,谢谢楼主
integral

0

主题

1491

帖子

265

积分

乐坛新星

Rank: 2

积分
265

社区QQ达人

发表于 2015-7-1 00:21:59 | 显示全部楼层
这是好东西。。谢谢你的分享。。。辛苦了。

0

主题

189

帖子

793

积分

职业歌手

Rank: 3Rank: 3

积分
793
发表于 2015-7-1 00:56:06 | 显示全部楼层
经典流行的音乐在她那磁性深情的嗓音诠释下,别有一番韵味!

0

主题

46

帖子

143

积分

新人会员,请认真回复,若恶意回复,直接封号

Rank: 1

积分
143
发表于 2015-7-1 01:40:39 | 显示全部楼层
啊哈哈 都出新专辑了/....赶紧试试

1

主题

223

帖子

626

积分

职业歌手

Rank: 3Rank: 3

积分
626
发表于 2015-7-1 01:55:17 | 显示全部楼层
十分的感谢楼主分享奉献孙露的这张新专辑,好听极了。

0

主题

333

帖子

554

积分

职业歌手

Rank: 3Rank: 3

积分
554

社区QQ达人

发表于 2015-7-1 05:25:14 | 显示全部楼层
十分好听女声收下听好多谢分享!

0

主题

595

帖子

1138

积分

职业歌手

Rank: 3Rank: 3

积分
1138

社区QQ达人

发表于 2015-7-1 08:12:23 | 显示全部楼层
呵呵,很好很好听的哦,不信试试。

您需要登录后才可以回帖 登录 | 注册

本版积分规则

快速回复 返回顶部 返回列表