查看: 448|回复: 7

[欧美摇滚] 交响先锋金属:Arcturus《Arcturus》2015/LP_FLAC/BD+115

[复制链接]
 成长值: 19635

6521

主题

1万

帖子

8万

积分

音乐掌门人

Rank: 20Rank: 20Rank: 20Rank: 20Rank: 20

积分
84266

名人勋章社区QQ达人分享勋章精华帖达人灌水勋章

发表于 2015-6-23 17:33:54 | 显示全部楼层 |阅读模式

注册会员,获得无损资源下载地址,享受高品质音乐。

您需要 登录 才可以下载或查看,没有帐号?注册

x
292_logo.jpg
292_photo.jpg

Arcturus

Country of origin:
    Norway
Location:
    Oslo
Status:
    Active
Formed in:
    1991
Genre:
    Atmospheric Black Metal (early), Avant-Garde Progressive Metal (later)
Lyrical themes:
    Astronomy, Madness, Supernatural, Literature
Current label:
    Prophecy Productions
Years active:
    1991-2007, 2011-present

Arcturus恐怕是挪威的交响黑金属乐队中最奇怪的一支,他们的音乐风格就象他们的乐队成员一样变化多端。他们的音乐从来就不是那种辉煌和华丽的交响黑金属,黯淡而奇特的旋律是他们独特的基调。 乐队最早成立于1989年,ARCTURUS的前身是一支名为MORTEM的死亡金属乐队。最初的成员是键盘手Sverd和著名的鼓手 Hellhammer,这两个人在1991年录制了ARCTURUS的首张7寸唱片,My Angel。二人对这张唱片还比较满意,于是决定继续在一起进行创作。之后不久,EMPEROR的吉他手Samoth和ULVER乐队的主唱Garm也加入了进来,有了这两位高手的协助,乐队在1993年发行的细碟Constellations虽然只发行了500份拷贝,但在当时的黑金属界却是倍受称赞的。不过这样罕见的作品如果不再版的话,恐怕我们是不可能听到的了。   

1994年,乐队阵容又发生了变化,由于Samoth被一些其他的事情纠缠,没有时间再来理会ARCTURUS的工作,他的替代者是TRITONUS乐队的吉他手August。此人使乐队的风格产生了较大的转变,他的古怪吉他和声将成为乐队音乐的基调。另外,乐队还迎来了贝司手Skoll(他也加入了诸多乐队,如ULVER、VED BUENS ENDE和FILMBULWINTER)。1995年,乐队以这个强大的阵容录制了经典专辑Aspera Hiems Symfonia,作为乐队的首张大碟,乐队成员的音乐素养和各种怪异想法都在其中得到了体现。整张专辑的基调十分灰暗,没有那种高潮迭起的段落,也没有那种快速嘈杂的黑金属吉他,主唱也很少声嘶力竭地尖叫。专辑中有大量巧妙编织的键盘旋律和怪诞的吉他段落,Garm的声线也不断在黑金属唱腔、民谣唱腔和歌剧唱腔之间来回变化。听这张专辑的时候,你可能会联想起CYNIC、ATHEIST和EXIT-13这样的乐队,因为他们都有一些Jazz的感觉在里面。    1996年August离开了乐队,新的吉他手是Knut。另外,借助于小提琴手Simen和一个四人小型弦乐队,乐队在1997年发表了颇具野心的新专辑La Masquerade Infernale。这张专辑比之前作更为先锋,大量歌剧式唱腔、规模宏大的交响配器再加上特殊的电子乐成分,这张专辑着实把歌迷吓了一跳。由于专辑过于前卫,以至于当时它得到的评价也是相当尖锐的,不过到今天,歌迷终于能够接受它并认为它是黑金属的一朵奇葩。   ARCTURUS看来真是要把金属乐抛到一边去了,他们在1999年的专辑Disguised Masters基本可以说是一张电子乐专辑,而且专辑中的歌曲并非新作,而是乐队自己或者其他乐队旧作的混音版。除了大量 breakbeat/techno之类的音乐外,甚至还有一首rap版本的歌曲,这种东西无疑让金属迷们感到非常失望。不过谁也猜不到乐队下一步将走向何方,说不定又回到早期的Symphony Black Metal,不过这实在是最好的想象了。
============================
folder.jpg

Arcturus · Arcturian


back.jpg
cover.jpg
inlay1.jpg
inlay2.jpg
side1.jpg
side2.jpg

Жанр: Atmospheric Black / Avantgarde Metal
Год выпуска: 2015
Лейбл · Каталог: Prophecy Productions · PRO 175 LP
Страна-производитель: Germany
Аудио кодек: FLAC
Тип рипа: tracks
Формат записи: 24/96
Формат раздачи: 24/96
Продолжительность: 47:55


01. The Arcturian Sign (5:06)
02. Crashland (4:08)
03. Angst (4:27)
04. Warp (3:52)
05. Game Over (5:57)
07. Demon (3:29)
08. Pale (5:10)
09. The Journey (4:15)
06. Archer (5:37)
10. Bane (5:52)

foobar2000 1.3.8 / Dynamic Range Meter 1.1.1
log date: 2015-05-24 01:19:00
--------------------------------------------------------------------------------
Analyzed: Arcturus / Acturian (Ltd. Ed. Black Vinyl Pressing)
--------------------------------------------------------------------------------
DR Peak RMS Duration Track
--------------------------------------------------------------------------------
DR12 -1.27 dB -15.43 dB 5:06 01-The Arcturian Sign
DR11 -1.07 dB -13.95 dB 4:08 02-Crashland
DR11 -1.58 dB -13.87 dB 4:27 03-Angst
DR12 -1.27 dB -14.43 dB 3:52 04-Warp
DR12 -1.68 dB -15.93 dB 5:57 05-Game Over
DR13 -2.03 dB -15.60 dB 5:37 06-Archer
DR10 -2.65 dB -14.34 dB 3:29 07-Demon
DR12 -1.13 dB -14.76 dB 5:10 08-Pale
DR10 -2.67 dB -14.62 dB 4:15 09-The Journey
DR11 -2.13 dB -15.80 dB 5:52 10-B-X Bane
--------------------------------------------------------------------------------
Number of tracks: 10
Official DR value: DR11
Samplerate: 96000 Hz
Channels: 2
Bits per sample: 24
Bitrate: 2833 kbps
Codec: FLAC
================================================================================

百度下载:
游客,如果您要查看本帖隐藏内容请回复

115下载:(附送CD版)
游客,如果您要查看本帖隐藏内容请回复
来自群组: 金属圣殿



上一篇:穷街乐队经典:Skid Row《Skid Row》1989/LP_FLAC(24/96)BD+115/913.3MB
下一篇:芬兰黑色交响金属:Nightwish《35CD更新日版》1997-2015/FLAC/115
关于链接失效的说明(度盘+115盘+快传 好友分享的说明)
http://www.cdbao.net/thread-117499-1-1.html     
紧急通告:115,快传等网盘取消了分享功能礼包码链接全部失效
http://www.cdbao.net/thread-122759-1-1.html

0

主题

50

帖子

-26

积分

恶意回复被扣没分了,积分增加方法见置顶帖

积分
-26

社区QQ达人

发表于 2015-6-24 09:47:42 | 显示全部楼层
怎么下载专辑。还有更多的专辑怎么找

6

主题

128

帖子

1708

积分

当红偶像

Rank: 4

积分
1708
发表于 2015-6-25 18:57:26 | 显示全部楼层
挪威的东西,整体质量肯定有保障的

0

主题

1431

帖子

1939

积分

当红偶像

Rank: 4

积分
1939
发表于 2015-6-26 22:41:34 | 显示全部楼层
LP转录的,音质应该不错!!!

2

主题

198

帖子

554

积分

职业歌手

Rank: 3Rank: 3

积分
554
发表于 2015-8-8 14:55:15 | 显示全部楼层
太好了,谢谢楼主,感谢分享!

0

主题

159

帖子

440

积分

乐坛新星

Rank: 2

积分
440

社区QQ达人

发表于 2015-8-23 18:25:47 | 显示全部楼层
感谢老大  下载下来听听 感谢老大辛苦上传

1

主题

4235

帖子

4437

积分

人气天王

Rank: 5Rank: 5

积分
4437

社区QQ达人

发表于 2016-8-25 16:15:19 | 显示全部楼层
虽然没有听过,专辑封面的风格好喜欢,好期待,支持了

0

主题

49

帖子

174

积分

乐坛新星

Rank: 2

积分
174
发表于 2016-11-24 23:24:32 | 显示全部楼层
听了前卫金属想看看与先锋金属有什么差别,下下下,谢谢分享
您需要登录后才可以回帖 登录 | 注册

本版积分规则

快速回复 返回顶部 返回列表