查看: 314|回复: 6

[欧美摇滚] 独立流行摇滚:Ghastly Menace《Songs Of Ghastly Menace》2015/FLAC/BD+115

[复制链接]
 成长值: 19560

6460

主题

1万

帖子

8万

积分

音乐掌门人

Rank: 20Rank: 20Rank: 20Rank: 20Rank: 20

积分
83669

名人勋章社区QQ达人分享勋章精华帖达人灌水勋章

发表于 2015-6-21 17:02:46 | 显示全部楼层 |阅读模式

注册会员,获得无损资源下载地址,享受高品质音乐。

您需要 登录 才可以下载或查看,没有帐号?注册

x
ScanImage01.jpg

cover.jpg

艺人:         Ghastly Menace
语种:         英语
唱片公司:         The Record Machine
发行时间:         2015年01月27日
专辑类别:         录音室专辑

Ghastly Menace - Songs Of Ghastly Menace

Жанр: Indie Pop
Год издания: 2015
Издатель (лейбл): The Record Machine
Страна исполнителя (группы): Usa
Аудиокодек: FLAC (*.flac)
Тип рипа: tracks+.cue
Битрейт аудио: lossless
Продолжительность: 00:43:48
Источник (релизер): CD


Треклист:
01. 80s
02. Closing
03. Living Together
04. While You're Here
05. On Our Way
06. Real Life
07. She Won't Stay for Long
08. Shadow Song
09. Wait
10. Rooftop Song
11. Children


X Lossless Decoder version 20141129 (148.1)
XLD extraction logfile from 2015-04-02 02:09:39 -0400
Ghastly Menace / Songs of Ghastly Menace
Used drive : MATSHITA DVD-R   UJ-8A8 (revision HB14)
Media type : Pressed CD
Ripper mode             : XLD Secure Ripper
Disable audio cache     : OK for the drive with a cache less than 1375KiB
Make use of C2 pointers : NO
Read offset correction  : 102
Max retry count         : 100
Gap status              : Analyzed, Appended (except HTOA)
TOC of the extracted CD
     Track |   Start  |  Length  | Start sector | End sector
    ---------------------------------------------------------
        1  | 00:00:00 | 03:53:61 |         0    |    17535
        2  | 03:53:61 | 03:59:52 |     17536    |    35512
        3  | 07:53:38 | 02:33:58 |     35513    |    47045
        4  | 10:27:21 | 06:08:09 |     47046    |    74654
        5  | 16:35:30 | 03:51:32 |     74655    |    92011
        6  | 20:26:62 | 05:32:26 |     92012    |   116937
        7  | 25:59:13 | 06:23:33 |    116938    |   145695
        8  | 32:22:46 | 02:05:51 |    145696    |   155121
        9  | 34:28:22 | 02:18:30 |    155122    |   165501
       10  | 36:46:52 | 02:42:32 |    165502    |   177683
       11  | 39:29:09 | 04:20:17 |    177684    |   197200
AccurateRip Summary
    Disc not found in AccurateRip DB.
All Tracks
    Album gain               : -7.10 dB
    Peak                     : 0.997375
    Statistics
        Read error                           : 0
        Jitter error (maybe fixed)           : 0
        Retry sector count                   : 0
        Damaged sector count                 : 0
Track 01
    Filename : /Users/XLD_rips/Ghastly Menace - Songs of Ghastly Menace (2015) [FLAC]/01-01 80s.flac
    Pre-gap length : 00:02:00
    Track gain               : -8.67 dB
    Peak                     : 0.977356
    CRC32 hash (test run)    : 077B40EE
    CRC32 hash               : 077B40EE
    CRC32 hash (skip zero)   : F9CD2989
    AccurateRip v1 signature : 6EC9A658
    AccurateRip v2 signature : A0F873DF
        ->Track not present in AccurateRip database.
    Statistics
        Read error                           : 0
        Jitter error (maybe fixed)           : 0
        Retry sector count                   : 0
        Damaged sector count                 : 0
Track 02
    Filename : /Users/XLD_rips/Ghastly Menace - Songs of Ghastly Menace (2015) [FLAC]/01-02 Closing.flac
    Track gain               : -7.65 dB
    Peak                     : 0.978821
    CRC32 hash (test run)    : 9073F785
    CRC32 hash               : 9073F785
    CRC32 hash (skip zero)   : 8B7839A5
    AccurateRip v1 signature : 54E3605E
    AccurateRip v2 signature : 26E78B87
        ->Track not present in AccurateRip database.
    Statistics
        Read error                           : 0
        Jitter error (maybe fixed)           : 0
        Retry sector count                   : 0
        Damaged sector count                 : 0
Track 03
    Filename : /Users/XLD_rips/Ghastly Menace - Songs of Ghastly Menace (2015) [FLAC]/01-03 Living Together.flac
    Track gain               : -5.11 dB
    Peak                     : 0.997375
    CRC32 hash (test run)    : 18DE548F
    CRC32 hash               : 18DE548F
    CRC32 hash (skip zero)   : AF4BA6F1
    AccurateRip v1 signature : 5E8DEBF1
    AccurateRip v2 signature : 4A1A5E1B
        ->Track not present in AccurateRip database.
    Statistics
        Read error                           : 0
        Jitter error (maybe fixed)           : 0
        Retry sector count                   : 0
        Damaged sector count                 : 0
Track 04
    Filename : /Users/XLD_rips/Ghastly Menace - Songs of Ghastly Menace (2015) [FLAC]/01-04 While You're Here.flac
    Track gain               : -5.91 dB
    Peak                     : 0.977417
    CRC32 hash (test run)    : B37C5DBE
    CRC32 hash               : B37C5DBE
    CRC32 hash (skip zero)   : A3C1BC62
    AccurateRip v1 signature : DCFDE3CD
    AccurateRip v2 signature : 3497D864
        ->Track not present in AccurateRip database.
    Statistics
        Read error                           : 0
        Jitter error (maybe fixed)           : 0
        Retry sector count                   : 0
        Damaged sector count                 : 0
Track 05
    Filename : /Users/XLD_rips/Ghastly Menace - Songs of Ghastly Menace (2015) [FLAC]/01-05 On Our Way.flac
    Track gain               : -6.88 dB
    Peak                     : 0.977509
    CRC32 hash (test run)    : 9854C8DF
    CRC32 hash               : 9854C8DF
    CRC32 hash (skip zero)   : 9799A770
    AccurateRip v1 signature : 68C5674A
    AccurateRip v2 signature : 8A0C4D1D
        ->Track not present in AccurateRip database.
    Statistics
        Read error                           : 0
        Jitter error (maybe fixed)           : 0
        Retry sector count                   : 0
        Damaged sector count                 : 0
Track 06
    Filename : /Users/XLD_rips/Ghastly Menace - Songs of Ghastly Menace (2015) [FLAC]/01-06 Real Life.flac
    Track gain               : -7.47 dB
    Peak                     : 0.977570
    CRC32 hash (test run)    : 44F60584
    CRC32 hash               : 44F60584
    CRC32 hash (skip zero)   : 3A2F3792
    AccurateRip v1 signature : 400C9CC6
    AccurateRip v2 signature : FD743CD8
        ->Track not present in AccurateRip database.
    Statistics
        Read error                           : 0
        Jitter error (maybe fixed)           : 0
        Retry sector count                   : 0
        Damaged sector count                 : 0
Track 07
    Filename : /Users/XLD_rips/Ghastly Menace - Songs of Ghastly Menace (2015) [FLAC]/01-07 She Won't Stay for Long.flac
    Track gain               : -5.64 dB
    Peak                     : 0.977234
    CRC32 hash (test run)    : 90FD9861
    CRC32 hash               : 90FD9861
    CRC32 hash (skip zero)   : 36240340
    AccurateRip v1 signature : D5B5DFD6
    AccurateRip v2 signature : 7429E4BC
        ->Track not present in AccurateRip database.
    Statistics
        Read error                           : 0
        Jitter error (maybe fixed)           : 0
        Retry sector count                   : 0
        Damaged sector count                 : 0
Track 08
    Filename : /Users/XLD_rips/Ghastly Menace - Songs of Ghastly Menace (2015) [FLAC]/01-08 Shadow Song.flac
    Track gain               : -5.65 dB
    Peak                     : 0.977234
    CRC32 hash (test run)    : 00159B77
    CRC32 hash               : 00159B77
    CRC32 hash (skip zero)   : 9EB18A51
    AccurateRip v1 signature : F005A875
    AccurateRip v2 signature : DDE24889
        ->Track not present in AccurateRip database.
    Statistics
        Read error                           : 0
        Jitter error (maybe fixed)           : 0
        Retry sector count                   : 0
        Damaged sector count                 : 0
Track 09
    Filename : /Users/XLD_rips/Ghastly Menace - Songs of Ghastly Menace (2015) [FLAC]/01-09 Wait.flac
    Track gain               : -6.87 dB
    Peak                     : 0.977814
    CRC32 hash (test run)    : CBE4AAE2
    CRC32 hash               : CBE4AAE2
    CRC32 hash (skip zero)   : 6AD725FD
    AccurateRip v1 signature : A3B25AD0
    AccurateRip v2 signature : 3612AB3F
        ->Track not present in AccurateRip database.
    Statistics
        Read error                           : 0
        Jitter error (maybe fixed)           : 0
        Retry sector count                   : 0
        Damaged sector count                 : 0
Track 10
    Filename : /Users/XLD_rips/Ghastly Menace - Songs of Ghastly Menace (2015) [FLAC]/01-10 Rooftop Song.flac
    Track gain               : -6.89 dB
    Peak                     : 0.977173
    CRC32 hash (test run)    : D7AD9CFA
    CRC32 hash               : D7AD9CFA
    CRC32 hash (skip zero)   : 1833454D
    AccurateRip v1 signature : 66E4E86C
    AccurateRip v2 signature : 835A8A13
        ->Track not present in AccurateRip database.
    Statistics
        Read error                           : 0
        Jitter error (maybe fixed)           : 0
        Retry sector count                   : 0
        Damaged sector count                 : 0
Track 11
    Filename : /Users/XLD_rips/Ghastly Menace - Songs of Ghastly Menace (2015) [FLAC]/01-11 Children.flac
    Track gain               : -7.07 dB
    Peak                     : 0.977417
    CRC32 hash (test run)    : F1160D92
    CRC32 hash               : F1160D92
    CRC32 hash (skip zero)   : 7F07527A
    AccurateRip v1 signature : DB2E6F27
    AccurateRip v2 signature : AB09FEBC
        ->Track not present in AccurateRip database.
    Statistics
        Read error                           : 0
        Jitter error (maybe fixed)           : 0
        Retry sector count                   : 0
        Damaged sector count                 : 0
No errors occurred
End of status report
-----BEGIN XLD SIGNATURE-----
rESWhxaIcbWZkZ1B1NXj8cwL8BAmkJlhagYzykA1p10xguz_fRk7vIRM7HxxmqLjKQH7JvpGr4fuP_.KjkR_u5dhdGi7.c7u_byJs2e
-----END XLD SIGNATURE-----

==================================

百度下载:
游客,如果您要查看本帖隐藏内容请回复


115下载:
游客,如果您要查看本帖隐藏内容请回复
来自群组: 摇滚名人堂



上一篇:后朋克流行电子:LoneLady《Hinterland》2015日版/FLAC/BD+115
下一篇:独立流行摇滚:Charlie Winston《Curio City》2015/FLAC/BD+115
关于链接失效的说明(度盘+115盘+快传 好友分享的说明)
http://www.cdbao.net/thread-117499-1-1.html     
紧急通告:115,快传等网盘取消了分享功能礼包码链接全部失效
http://www.cdbao.net/thread-122759-1-1.html

7

主题

173

帖子

1377

积分

当红偶像

Rank: 4

积分
1377
发表于 2015-6-23 12:31:02 | 显示全部楼层
独立流行的听得不多,来试试!!!!!!

0

主题

609

帖子

801

积分

职业歌手

Rank: 3Rank: 3

积分
801
发表于 2015-6-23 23:50:16 | 显示全部楼层
喜欢在这个~~很不错的乐队!!~!~

0

主题

609

帖子

801

积分

职业歌手

Rank: 3Rank: 3

积分
801
发表于 2015-6-23 23:51:39 | 显示全部楼层
喜欢这个!~~很不错的乐队@!~~

0

主题

609

帖子

801

积分

职业歌手

Rank: 3Rank: 3

积分
801
发表于 2015-6-23 23:58:00 | 显示全部楼层
这个不错啊~许下来仔细听听!~~~

1

主题

4235

帖子

4437

积分

人气天王

Rank: 5Rank: 5

积分
4437

社区QQ达人

发表于 2016-8-25 16:20:06 | 显示全部楼层
一直很喜欢的风格,这个必须要听一下,支持了,大赞,谢谢楼主

0

主题

732

帖子

794

积分

职业歌手

Rank: 3Rank: 3

积分
794
发表于 2016-9-25 19:47:30 | 显示全部楼层
Upload is not easy. Thanks for sharingMany years later, and then revisit this melody, then the mood will come together.
您需要登录后才可以回帖 登录 | 注册

本版积分规则

快速回复 返回顶部 返回列表