查看: 1318|回复: 17

电子流行: Jamie XX《In Colour》2015/FLAC/BD+115

[复制链接] [已阅至12楼]
 成长值: 19575

6461

主题

1万

帖子

8万

积分

音乐掌门人

Rank: 20Rank: 20Rank: 20Rank: 20Rank: 20

积分
83676

名人勋章社区QQ达人分享勋章精华帖达人灌水勋章

发表于 2015-6-16 14:44:21 | 显示全部楼层 |阅读模式

注册会员,获得无损资源下载地址,享受高品质音乐。

您需要 登录 才可以下载或查看,没有帐号?注册

x
cover.jpg

艺人:         Jamie xx
语种:         英语
唱片公司:         Young Turks
发行时间:         2015年06月01日
专辑类别:         录音室专辑
专辑风格:         英国贝斯舞曲 UK Bass

Jamie XX – In Colour

Жанр: Electronic / Pop / House / UK Garage
Носитель: CD
Страна-производитель диска (релиза): UK
Год издания: 2015
Издатель (лейбл): Young Turks
Номер по каталогу: YTLP122X
Аудиокодек: FLAC (*.flac)
Тип рипа: tracks+.cue
Битрейт аудио: lossless
Продолжительность: 00:42:44



01 - Gosh 4:51
02 - Sleep Sound 3:53
03 - SeeSaw (feat. Romy) 4:29
04 - Obvs 3:51
05 - Just Saying 1:24
06 - Stranger In A Room (feat. Oliver Sim) 2:58
07 - Hold Tight 4:03
08 - Loud Places (feat. Romy) 4:43
09 - I Know There's Gonna Be (Good Times) (feat. Young Thug and Popcaan) 3:34
10 - The Rest Is Noise 4:58
11 - Girl 4:01



X Lossless Decoder version 20141129 (148.1)
XLD extraction logfile from 2015-05-29 16:22:49 +0200
Jamie xx / In Colour
Used drive : TS8XDVDS TRANSCEND (revision TW00)
Media type : Pressed CD
Ripper mode             : XLD Secure Ripper
Disable audio cache     : OK for the drive with a cache less than 1375KiB
Make use of C2 pointers : NO
Read offset correction  : 6
Max retry count         : 100
Gap status              : Analyzed, Appended (except HTOA)
TOC of the extracted CD
     Track |   Start  |  Length  | Start sector | End sector
    ---------------------------------------------------------
        1  | 00:00:00 | 04:51:01 |         0    |    21825
        2  | 04:51:01 | 03:52:47 |     21826    |    39272
        3  | 08:43:48 | 04:28:59 |     39273    |    59431
        4  | 13:12:32 | 03:51:03 |     59432    |    76759
        5  | 17:03:35 | 01:23:67 |     76760    |    83051
        6  | 18:27:27 | 02:57:38 |     83052    |    96364
        7  | 21:24:65 | 04:03:30 |     96365    |   114619
        8  | 25:28:20 | 04:43:05 |    114620    |   135849
        9  | 30:11:25 | 03:33:47 |    135850    |   151871
       10  | 33:44:72 | 04:58:23 |    151872    |   174244
       11  | 38:43:20 | 04:01:34 |    174245    |   192353
AccurateRip Summary
    Disc not found in AccurateRip DB.
All Tracks
    Album gain               : -6.07 dB
    Peak                     : 0.982880
    Statistics
        Read error                           : 0
        Jitter error (maybe fixed)           : 0
        Retry sector count                   : 0
        Damaged sector count                 : 0
Track 01
    Filename : /Volumes/LaCie 1 DL/Jamie xx -2015- In Colour (FLAC)/01 - Gosh.flac
    Pre-gap length : 00:02:00
    Track gain               : -4.16 dB
    Peak                     : 0.969482
    CRC32 hash (test run)    : 84999EF1
    CRC32 hash               : 84999EF1
    CRC32 hash (skip zero)   : 380650E1
    AccurateRip v1 signature : 8CFAF323
    AccurateRip v2 signature : F6170B0F
        ->Track not present in AccurateRip database.
    Statistics
        Read error                           : 0
        Jitter error (maybe fixed)           : 0
        Retry sector count                   : 0
        Damaged sector count                 : 0
Track 02
    Filename : /Volumes/LaCie 1 DL/Jamie xx -2015- In Colour (FLAC)/02 - Sleep Sound.flac
    Track gain               : -4.58 dB
    Peak                     : 0.969757
    CRC32 hash (test run)    : 8E5DA85B
    CRC32 hash               : 8E5DA85B
    CRC32 hash (skip zero)   : EBFF73A7
    AccurateRip v1 signature : A6EAD477
    AccurateRip v2 signature : B9A18890
        ->Track not present in AccurateRip database.
    Statistics
        Read error                           : 0
        Jitter error (maybe fixed)           : 0
        Retry sector count                   : 0
        Damaged sector count                 : 0
Track 03
    Filename : /Volumes/LaCie 1 DL/Jamie xx -2015- In Colour (FLAC)/03 - SeeSaw (feat. Romy).flac
    Track gain               : -4.77 dB
    Peak                     : 0.972260
    CRC32 hash (test run)    : DBFBC818
    CRC32 hash               : DBFBC818
    CRC32 hash (skip zero)   : 14AE57DC
    AccurateRip v1 signature : 3CFB80B1
    AccurateRip v2 signature : EE67EA03
        ->Track not present in AccurateRip database.
    Statistics
        Read error                           : 0
        Jitter error (maybe fixed)           : 0
        Retry sector count                   : 0
        Damaged sector count                 : 0
Track 04
    Filename : /Volumes/LaCie 1 DL/Jamie xx -2015- In Colour (FLAC)/04 - Obvs.flac
    Track gain               : -5.77 dB
    Peak                     : 0.981995
    CRC32 hash (test run)    : 47A36226
    CRC32 hash               : 47A36226
    CRC32 hash (skip zero)   : 0166A91E
    AccurateRip v1 signature : 5CA4DB4F
    AccurateRip v2 signature : FF1B37CB
        ->Track not present in AccurateRip database.
    Statistics
        Read error                           : 0
        Jitter error (maybe fixed)           : 0
        Retry sector count                   : 0
        Damaged sector count                 : 0
Track 05
    Filename : /Volumes/LaCie 1 DL/Jamie xx -2015- In Colour (FLAC)/05 - Just Saying.flac
    Track gain               : -5.08 dB
    Peak                     : 0.968933
    CRC32 hash (test run)    : DC641C53
    CRC32 hash               : DC641C53
    CRC32 hash (skip zero)   : 108555E3
    AccurateRip v1 signature : AD9212EB
    AccurateRip v2 signature : 53F088DB
        ->Track not present in AccurateRip database.
    Statistics
        Read error                           : 0
        Jitter error (maybe fixed)           : 0
        Retry sector count                   : 0
        Damaged sector count                 : 0
Track 06
    Filename : /Volumes/LaCie 1 DL/Jamie xx -2015- In Colour (FLAC)/06 - Stranger In A Room (feat. Oliver Sim).flac
    Track gain               : -7.14 dB
    Peak                     : 0.968689
    CRC32 hash (test run)    : F793936F
    CRC32 hash               : F793936F
    CRC32 hash (skip zero)   : E9EC8D16
    AccurateRip v1 signature : 42AFAC83
    AccurateRip v2 signature : 7FA81EE7
        ->Track not present in AccurateRip database.
    Statistics
        Read error                           : 0
        Jitter error (maybe fixed)           : 0
        Retry sector count                   : 0
        Damaged sector count                 : 0
Track 07
    Filename : /Volumes/LaCie 1 DL/Jamie xx -2015- In Colour (FLAC)/07 - Hold Tight.flac
    Track gain               : -7.01 dB
    Peak                     : 0.972229
    CRC32 hash (test run)    : AEE3B928
    CRC32 hash               : AEE3B928
    CRC32 hash (skip zero)   : 761C0A42
    AccurateRip v1 signature : CBADFAB6
    AccurateRip v2 signature : 7BE301D8
        ->Track not present in AccurateRip database.
    Statistics
        Read error                           : 0
        Jitter error (maybe fixed)           : 0
        Retry sector count                   : 0
        Damaged sector count                 : 0
Track 08
    Filename : /Volumes/LaCie 1 DL/Jamie xx -2015- In Colour (FLAC)/08 - Loud Places (feat. Romy).flac
    Track gain               : -5.06 dB
    Peak                     : 0.971069
    CRC32 hash (test run)    : 1D25619E
    CRC32 hash               : 1D25619E
    CRC32 hash (skip zero)   : C003E7D3
    AccurateRip v1 signature : DF0336D6
    AccurateRip v2 signature : 96DF75F2
        ->Track not present in AccurateRip database.
    Statistics
        Read error                           : 0
        Jitter error (maybe fixed)           : 0
        Retry sector count                   : 0
        Damaged sector count                 : 0
Track 09
    Filename : /Volumes/LaCie 1 DL/Jamie xx -2015- In Colour (FLAC)/09 - I Know There's Gonna Be (Good Times) (feat. Young Thug and Popcaan).flac
    Track gain               : -6.09 dB
    Peak                     : 0.981476
    CRC32 hash (test run)    : B1667501
    CRC32 hash               : B1667501
    CRC32 hash (skip zero)   : EE09BCD9
    AccurateRip v1 signature : A15A30CB
    AccurateRip v2 signature : 5C8694EF
        ->Track not present in AccurateRip database.
    Statistics
        Read error                           : 0
        Jitter error (maybe fixed)           : 0
        Retry sector count                   : 0
        Damaged sector count                 : 0
Track 10
    Filename : /Volumes/LaCie 1 DL/Jamie xx -2015- In Colour (FLAC)/10 - The Rest Is Noise.flac
    Track gain               : -7.17 dB
    Peak                     : 0.972473
    CRC32 hash (test run)    : 798F03CA
    CRC32 hash               : 798F03CA
    CRC32 hash (skip zero)   : F331C31F
    AccurateRip v1 signature : F7337DCA
    AccurateRip v2 signature : E66B93F6
        ->Track not present in AccurateRip database.
    Statistics
        Read error                           : 0
        Jitter error (maybe fixed)           : 0
        Retry sector count                   : 0
        Damaged sector count                 : 0
Track 11
    Filename : /Volumes/LaCie 1 DL/Jamie xx -2015- In Colour (FLAC)/11 - Girl.flac
    Track gain               : -6.92 dB
    Peak                     : 0.982880
    CRC32 hash (test run)    : D4D51A3C
    CRC32 hash               : D4D51A3C
    CRC32 hash (skip zero)   : 978D68FB
    AccurateRip v1 signature : 6CAA2C13
    AccurateRip v2 signature : 43F69532
        ->Track not present in AccurateRip database.
    Statistics
        Read error                           : 0
        Jitter error (maybe fixed)           : 0
        Retry sector count                   : 0
        Damaged sector count                 : 0
No errors occurred
End of status report
-----BEGIN XLD SIGNATURE-----
ItQmE7sjWsvkPwd6EqivqqnS.yoyd6TRuBtgseFXv_wSBtABGY9_rzm9qZl3mjLRLKo4JyoW3ZkfxRp73vNlP7jQVlJCIQ3u_KB5V00
-----END XLD SIGNATURE-----

==========================
百度下载:
游客,如果您要查看本帖隐藏内容请回复

115下载:
游客,如果您要查看本帖隐藏内容请回复
来自群组: 欧美流行



上一篇:The Avener《The Wanderings Of The Avener》2015/FLAC/法数码豪华版+欧版
下一篇:加拿大独立电子: Purity Ring《Begin Again》2015/FLAC/BD+115
关于链接失效的说明(度盘+115盘+快传 好友分享的说明)
http://www.cdbao.net/thread-117499-1-1.html     
紧急通告:115,快传等网盘取消了分享功能礼包码链接全部失效
http://www.cdbao.net/thread-122759-1-1.html

1

主题

125

帖子

330

积分

乐坛新星

Rank: 2

积分
330
发表于 2015-6-17 09:35:04 | 显示全部楼层
哈哈,神速!支持!这个碟好听~ 感谢!

1

主题

121

帖子

309

积分

乐坛新星

Rank: 2

积分
309

社区QQ达人

发表于 2015-6-17 21:54:30 | 显示全部楼层
好新鲜的碟,试听很不错,收下了,谢谢!

0

主题

609

帖子

801

积分

职业歌手

Rank: 3Rank: 3

积分
801
发表于 2015-6-23 23:07:25 | 显示全部楼层
这个还可以阿~下来仔细听听!!

0

主题

6

帖子

38

积分

新人会员,请认真回复,若恶意回复,直接封号

Rank: 1

积分
38
发表于 2015-8-4 13:22:53 | 显示全部楼层
哇竟然有这个!!已经入实体了,不过还是支持下,真的很赞。

0

主题

403

帖子

499

积分

职业歌手

Rank: 3Rank: 3

积分
499

社区QQ达人

发表于 2015-8-21 21:05:27 | 显示全部楼层
感觉超赞 谢谢楼主

0

主题

29

帖子

-34

积分

恶意回复被扣没分了,积分增加方法见置顶帖

积分
-34
发表于 2015-9-1 22:00:11 | 显示全部楼层
DDDDDDDDDDDDDDDDDDDDDDDDDDDDDDDDDDDDDDDDDDDD

评分

参与人数 1CD -80 收起 理由
最终之战 -80 没看版规吧,论坛严禁无意义灌水。.

查看全部评分

0

主题

126

帖子

264

积分

乐坛新星

Rank: 2

积分
264

社区QQ达人

发表于 2015-10-18 12:33:39 | 显示全部楼层
谢谢分享啊,超级好听,必须无损
 成长值: 4975

1

主题

199

帖子

716

积分

VIP4

Rank: 7Rank: 7Rank: 7

积分
716

社区QQ达人

QQ
发表于 2015-12-6 12:21:01 | 显示全部楼层
这张也是年底的获奖大户,多谢楼主的分享啦!

0

主题

7

帖子

70

积分

新人会员,请认真回复,若恶意回复,直接封号

Rank: 1

积分
70
发表于 2016-1-3 01:19:08 | 显示全部楼层
今年大火的一张啊~~!收了,多谢

0

主题

10

帖子

87

积分

新人会员,请认真回复,若恶意回复,直接封号

Rank: 1

积分
87

社区QQ达人

发表于 2016-1-3 16:57:15 | 显示全部楼层
电子乐其实也有适合聆听的,也挺带感

管理员已阅至此楼

0

主题

1674

帖子

2200

积分

当红偶像

Rank: 4

积分
2200

社区QQ达人

发表于 2016-2-25 11:25:36 | 显示全部楼层
喜欢谢谢楼主   不错的好音乐   来一 个

0

主题

111

帖子

186

积分

乐坛新星

Rank: 2

积分
186
发表于 2016-3-11 22:19:13 | 显示全部楼层
2015最佳电子音乐                                                               

347

主题

1590

帖子

1万

积分

人气天王

SoRock!

Rank: 5Rank: 5

积分
10546

社区QQ达人灌水勋章分享勋章精华帖达人

发表于 2016-4-9 16:38:52 | 显示全部楼层
这种类型的电子音乐还没听过,下来听听
我爱摇滚乐

0

主题

149

帖子

237

积分

乐坛新星

Rank: 2

积分
237
发表于 2016-4-27 09:42:11 | 显示全部楼层
喜欢这种风格的音乐,介绍文字是俄文,唱的却是英语。
您需要登录后才可以回帖 登录 | 注册

本版积分规则

快速回复 返回顶部 返回列表