查看: 10718|回复: 240

[MV] 全球禁播魔术大揭秘.中文字幕13集全576P.MKV/5.93G

  [复制链接]
 成长值: 21724

1793

主题

2165

帖子

11万

积分

音乐总监

Rank: 15Rank: 15Rank: 15Rank: 15Rank: 15

积分
119668

社区QQ达人

发表于 2015-6-9 21:11:19 | 显示全部楼层 |阅读模式

注册会员,获得无损资源下载地址,享受高品质音乐。

您需要 登录 才可以下载或查看,没有帐号?注册

x
本帖最后由 醉耳 于 2016-4-3 07:06 编辑






介绍
MyNetworkTV推出了全新的系列,“魔术的最大秘密揭晓”
主演的蒙面魔术师。 “魔术的最大秘密揭晓
的”明星瓦尔华伦天奴的蒙面魔术师有时也被称为假面先生M.
这是全世界魔术师都不想你看到的节目,蒙面魔术师东山复出,
不再躲藏,继续揭开行内秘而不宣的大秘密,
大家将会知道魔术师如何大显神通,冲破死亡陷阱,
制造飘浮奇景,令物体离奇失踪,变出巧妙戏法和不可能幻象,
最显赫的魔术大师,最大型的魔术,最神圣的秘密,
都在本节目中现出原形。 曾经在中央电视台播放过一小部分,
后来由于中国魔术界的强烈抗议停播。凭空消失的坦克,
锯人等等全部来个底朝天的揭秘,怪不得遭到通缉,
看完之后,相信多数常见的魔术都搞不定你了。

视频信息

General
Unique ID                      : 187721880248174366921389535100995431317 (0x8D39EB461E2AFACB947B96EFF7E4EB95)
Complete name                  : D:\BaiduYunDownload\全球禁播魔术大揭秘.中文字幕576P.MKV(13集全)\01.mkv
Format                         : Matroska
Format version                 : Version 2
File size                      : 459 MiB
Duration                       : 39mn 30s
Overall bit rate mode          : Variable
Overall bit rate               : 1 626 Kbps
Movie name                     : Done with AutoMKV 0.98.4
http://forum.doom9.org/showthread.php?t=140178
Encoded date                   : UTC 2013-12-04 09:01:45
Writing application            : mkvmerge v4.3.0 ('Escape from the Island') 编译于 Sep  5 2010 10:30:51
Writing library                : libebml v1.0.0 + libmatroska v1.0.0
Video
ID                             : 1
Format                         : AVC
Format/Info                    : Advanced Video Codec
Format profile                 :
[email protected]
Format settings, CABAC         : Yes
Format settings, ReFrames      : 4 frames
Muxing mode                    : Header stripping
Codec ID                       : V_MPEG4/ISO/AVC
Duration                       : 39mn 30s
Bit rate                       : 1 500 Kbps
Width                          : 1 024 pixels
Height                         : 576 pixels
Display aspect ratio           : 16:9
Frame rate mode                : Constant
Frame rate                     : 25.000 fps
Color space                    : YUV
Chroma subsampling             : 4:2:0
Bit depth                      : 8 bits
Scan type                      : Progressive
Bits/(Pixel*Frame)             : 0.102
Stream size                    : 414 MiB (90%)
Writing library                : x264 core 120 r2164 da19765
Encoding settings              : cabac=1 / ref=3 / deblock=1:0:0 / analyse=0x3:0x113 / me=hex / subme=7 / psy=1 / psy_rd=1.00:0.00 / mixed_ref=1 / me_range=16 / chroma_me=1 / trellis=2 / 8x8dct=1 / cqm=0 / deadzone=21,11 / fast_pskip=1 / chroma_qp_offset=-2 / threads=6 / sliced_threads=0 / nr=0 / decimate=1 / interlaced=0 / bluray_compat=0 / constrained_intra=0 / bframes=3 / b_pyramid=2 / b_adapt=1 / b_bias=0 / direct=1 / weightb=1 / open_gop=1 / weightp=2 / keyint=250 / keyint_min=25 / scenecut=40 / intra_refresh=0 / rc_lookahead=40 / rc=2pass / mbtree=1 / bitrate=1500 / ratetol=1.0 / qcomp=0.60 / qpmin=0 / qpmax=69 / qpstep=4 / cplxblur=20.0 / qblur=0.5 / ip_ratio=1.40 / aq=1:1.00
Language                       : English
Default                        : Yes
Forced                         : No
Audio
ID                             : 2
Format                         : MPEG Audio
Format version                 : Version 1
Format profile                 : Layer 3
Mode                           : Joint stereo
Mode extension                 : MS Stereo
Muxing mode                    : Header stripping
Codec ID                       : A_MPEG/L3
Codec ID/Hint                  : MP3
Duration                       : 38mn 30s
Bit rate mode                  : Variable
Bit rate                       : 128 Kbps
Channel(s)                     : 2 channels
Sampling rate                  : 48.0 KHz
Compression mode               : Lossy
Stream size                    : 35.2 MiB (8%)
Writing library                : LAME3.98r
Encoding settings              : -m j -V 4 -q 3 -lowpass 17 --abr 128
Default                        : Yes
Forced                         : No


1.jpg
2.jpg
3.jpg
4.jpg


资源来自网络  醉耳整理上传
如喜欢请支持正版!
如本人所发资源有被和谐失效的
请用站内信告知我会尽快补档
解压密码:www.cdbao.net
下载地址:
回复后:帖子靛青色部分为快传地址,
蓝底色为百度云盘下载地址。

游客,如果您要查看本帖隐藏内容请回复







评分

参与人数 2CD +210 包子 +1 收起 理由
兽力资源总监 + 60 + 1 希望这个压片组是玩极限参数的,嘿嘿.
CDbao + 150 这个可以有,一直想知道模式是怎么回事.

查看全部评分

不追新 不赶潮 只爱经典好声音

0

主题

359

帖子

441

积分

乐坛新星

Rank: 2

积分
441

社区QQ达人

发表于 2015-6-9 21:24:13 | 显示全部楼层
这视频一出估计很多魔术师都要失业了。

0

主题

127

帖子

402

积分

乐坛新星

Rank: 2

积分
402
发表于 2015-6-9 21:45:24 | 显示全部楼层
多谢分享了哈 这个不错~支持下呢~~~

0

主题

19

帖子

88

积分

新人会员,请认真回复,若恶意回复,直接封号

Rank: 1

积分
88
发表于 2015-6-9 22:25:30 | 显示全部楼层
这真是个好东西,好好学学以后表演看看

3

主题

220

帖子

5063

积分

人气天王

Rank: 5Rank: 5

积分
5063

社区QQ达人

发表于 2015-6-9 22:49:57 | 显示全部楼层
这个不错~支持下呢~这真是个好东西

1

主题

137

帖子

1070

积分

职业歌手

Rank: 3Rank: 3

积分
1070
发表于 2015-6-9 23:07:26 | 显示全部楼层
看看可以大开眼界了,谢谢楼主分享

0

主题

54

帖子

250

积分

乐坛新星

Rank: 2

积分
250
发表于 2015-6-9 23:21:15 | 显示全部楼层

这视频一出估计很多魔术师都要失业了。

0

主题

187

帖子

124

积分

新人会员,请认真回复,若恶意回复,直接封号

Rank: 1

积分
124
发表于 2015-6-9 23:42:38 | 显示全部楼层
这种好东西必须下来看看
谢谢分享~

0

主题

739

帖子

1706

积分

当红偶像

Rank: 4

积分
1706
发表于 2015-6-10 00:01:44 | 显示全部楼层
很不错的合集,很喜欢,楼主辛苦了!

0

主题

92

帖子

116

积分

新人会员,请认真回复,若恶意回复,直接封号

Rank: 1

积分
116

社区QQ达人

发表于 2015-6-10 00:24:02 | 显示全部楼层
太喜欢了   太喜欢了   太喜欢了   太喜欢了   太喜欢了   太喜欢了   太喜欢了   太喜欢了   太喜欢了   太喜欢了   太喜欢了   太喜欢了   太喜欢了   太喜欢了   太喜欢了   太喜欢了   太喜欢了   太喜欢了   太喜欢了   太喜欢了   太喜欢了   太喜欢了   太喜欢了   

0

主题

72

帖子

159

积分

乐坛新星

Rank: 2

积分
159

社区QQ达人

发表于 2015-6-10 01:04:08 | 显示全部楼层
太喜欢了,找了好久了,谢啦

0

主题

328

帖子

1753

积分

当红偶像

Rank: 4

积分
1753

社区QQ达人

发表于 2015-6-10 02:05:17 | 显示全部楼层
这个从来都没有看过,下了好好看看

0

主题

91

帖子

269

积分

乐坛新星

Rank: 2

积分
269
发表于 2015-6-10 08:08:04 | 显示全部楼层
谢谢,一直想看看是什么魔术的底

0

主题

59

帖子

807

积分

职业歌手

Rank: 3Rank: 3

积分
807
发表于 2015-6-10 08:28:25 | 显示全部楼层
感谢楼主无私分享。好资源,学习一下。

2

主题

421

帖子

296

积分

乐坛新星

Rank: 2

积分
296

社区QQ达人

发表于 2015-6-10 08:31:22 | 显示全部楼层
这里还有这样的好动西,感谢楼主分享
您需要登录后才可以回帖 登录 | 注册

本版积分规则

快速回复 返回顶部 返回列表