查看: 7479|回复: 225

醉耳原抓《尊享·听觉 发烧汽车音乐1 (6CD) 》WAV+CUE/快传+百度

  [复制链接]
 成长值: 21799

1793

主题

2165

帖子

11万

积分

音乐总监

Rank: 15Rank: 15Rank: 15Rank: 15Rank: 15

积分
119671

社区QQ达人

发表于 2015-5-12 21:13:56 | 显示全部楼层 |阅读模式

注册会员,获得无损资源下载地址,享受高品质音乐。

您需要 登录 才可以下载或查看,没有帐号?注册

x
本帖最后由 醉耳 于 2015-5-13 06:38 编辑






1.jpg
2.jpg
IMG20150511182709.jpg



尊享·听觉 超强发烧汽车音乐1 (6CD)
出 版 社:中国唱片广州公司
发行公司: 中国唱片广州公司
地    区:大陆碟
ISBN: 9787885285845
条形码: 9787885285845
ASIN: B00KRYYRVW
资源格式:WAV+CUE
内容简介  
尊贵独特的包装,举座皆靓的发烧享受。绝对为您的爱车音响量身定做!在认识评估车内听音环境、音场定位、器材素质、检验安装及准确调试中,让器材发挥与其身价相符的声音效果。车驰乐动,非同凡响,一次体验最HI-FI的传真感受!

曲目CD1最迷人女声组合《今天你要嫁给我》
01.隐形的翅膀

02.今天你要嫁给我
03.灰姑娘
04.香水有毒
05.菊花台
06.你是我的玫瑰花
07.千里之外"
08.死了都要爱
09.一个像夏天一个像秋天
10.秋天不回来
11.宁夏
12.那一夜
13.恋爱百分百
14.神话
15.小薇
CD2最强情歌联唱42首
16.有多少爱可以重来
17.从开始到现在
18.月亮惹的祸
19.至少还有你
20.勇气
21.花瓣雨
22.爱如潮水
23.我曾用心爱着你
24.其实你不懂我的心
25.黄昏
26.后来
27.唯一
28.单身情歌
29.晚秋
30.花心
31.执著
32.把悲伤留给自己
33.挪威的森林
34.太傻
35.我是一只小小鸟
36.一世情缘
37.你怎么舍得我难过
38.特别的爱给特别的你
39.恋曲1990
40.旋木
41.我很丑可是我很温柔
42.一笑而过
43.一千个伤心的理由
44.梦一场
45.你知道我在等你吗
46.我要的不多
47.读你
48.红豆
49.我终于失去了你
50.一场游戏一场梦
51.为了爱梦一生
52.信仰
53.好人好梦
54.美丽花蝴蝶
55.当我想你的时候
56.是不是这样的夜晚你才会这样的想起我
57.他一定很爱你

CD3性感倾情之声《东风破》
1.东风破
2.有多少爱可以重来
3.2002年的第一场雪
4.小薇
5.你怎么舍得我难过
6.用心良苦
7.把悲伤留给自己
8.四季似歌
9.黄昏
10.心太软
11.再回首
12.我是不是你最疼爱的人

CD4醉心轻音乐《天路》
1.天路

2.我和我的祖国
3.在希望的田野上
4.十五的月亮
5.我爱你,中国
6.爱我中华
7.父老乡亲
8.今天是你的生日,
9.难忘今宵
10.共和国之恋
11.春天的故事
12.祝福祖国
13.走进新时代
14.好日子

CD5发烧民歌旋律《茉莉花》
01.茉莉花曲/江苏民歌

02.在银色的月光下曲/新疆塔塔尔民谣
03.绣荷包曲/山西民歌
04.凤阳花鼓曲/安徽民歌
05.在那遥远的地方曲/新疆民歌
06.每当我想起你曲/陈玛莉
07.红豆词曲/刘雪庵
08.花好月圆曲/严华
09.海採茶曲/客家山歌
10.无尽的爱曲/林照清
11.天黑黑曲/台湾民谣
12.月夜愁曲/邓雨贤

CD6激情飞扬《再度出击》
1.BABE BABE  心爱的宝贝
2.NO LIMIT  无界
3.NO SHOWBO  隐
4.JUNGLE CAT  丛林猫
5.ONE MORE SHOT 再度出击

6.RUNNING AWAY  飞奔
7.ALL THAT SHE WANT  她想要的
8.STAND UP  起立
9.A MAN LIKE THAT  这样一个人
10.WHAT IS LOVE  爱是什么

醉耳原抓 CD包原创资源
如喜欢请支持正版!
如本人所发资源有被和谐失效的
请用站内信告知我会尽快补档
解压密码:www.cdbao.net
下载地址:
回复后:帖子靛青色部分为快传地址,
蓝底色为百度云盘下载地址。
CD1新链接
链接:http://pan.baidu.com/s/1mgikKZm 密码:ygii
游客,如果您要查看本帖隐藏内容请回复






评分

参与人数 1CD +160 包子 +3 收起 理由
最终之战 + 160 + 3 感谢分享资源,CD包因你而精彩.

查看全部评分




上一篇:群星《豪驾神曲7·宾利专用》WAV/分轨/快传+百度
下一篇:群星 《靓音车情 STS+HD》WAV/分轨/快传+百度
不追新 不赶潮 只爱经典好声音
 成长值: 21799

1793

主题

2165

帖子

11万

积分

音乐总监

Rank: 15Rank: 15Rank: 15Rank: 15Rank: 15

积分
119671

社区QQ达人

发表于 2015-5-12 21:22:20 | 显示全部楼层

Exact Audio Copy V1.0 beta 6 from 9. April 2015
EAC extraction logfile from 12. May 2015, 20:53
群星 / 尊享听觉-汽车音乐1
Used drive  : HL-DT-STDVD+-RW GT32N   Adapter: 1  ID: 0
Read mode : Fast
Read offset correction                      : 0
Overread into Lead-In and Lead-Out          : No
Fill up missing offset samples with silence : Yes
Delete leading and trailing silent blocks   : No
Null samples used in CRC calculations       : Yes
Used interface                              : Native Win32 interface for Win NT & 2000
Used output format : Internal WAV Routines
Sample format      : 44.100 Hz; 16 Bit; Stereo

TOC of the extracted CD
     Track |   Start  |  Length  | Start sector | End sector
    ---------------------------------------------------------
        1  |  0:00.00 |  4:31.58 |         0    |    20382   
        2  |  4:31.58 |  4:53.03 |     20383    |    42360   
        3  |  9:24.61 |  4:49.38 |     42361    |    64073   
        4  | 14:14.24 |  5:29.44 |     64074    |    88792   
        5  | 19:43.68 |  4:44.60 |     88793    |   110152   
        6  | 24:28.53 |  4:23.13 |    110153    |   129890   
        7  | 28:51.66 |  4:41.12 |    129891    |   150977   
        8  | 33:33.03 |  4:30.72 |    150978    |   171299   
        9  | 38:04.00 |  4:08.23 |    171300    |   189922   
       10  | 42:12.23 |  4:13.63 |    189923    |   208960   
       11  | 46:26.11 |  3:56.57 |    208961    |   226717   
       12  | 50:22.68 |  5:49.54 |    226718    |   252946   
       13  | 56:12.47 |  3:32.24 |    252947    |   268870   
       14  | 59:44.71 |  4:56.33 |    268871    |   291103   
       15  | 64:41.29 |  5:09.69 |    291104    |   314347   

Range status and errors
Selected range
     Filename D:\醉耳原抓\群星 - 尊享听觉-汽车音乐1.wav
     Peak level 100.0 %
     Extraction speed 2.2 X
     Copy CRC 15631904
     Copy OK
No errors occurred
End of status report
---- CUETools DB Plugin V2.1.6
[CTDB TOCID: j8U3WdgQij6rdv_slE2Ai994BCc-] disk not present in database
Submit result: insufficient quality

==== Log checksum DFE8944A6B58B7E51356A7822EC1D60FA8CD678EA9F8B28D72BA314B2208D6DF ====

不追新 不赶潮 只爱经典好声音

0

主题

572

帖子

985

积分

职业歌手

Rank: 3Rank: 3

积分
985
发表于 2015-5-12 22:23:19 | 显示全部楼层

难道我这级别的真不让下载留存。

2

主题

788

帖子

1309

积分

当红偶像

Rank: 4

积分
1309
发表于 2015-5-12 22:57:34 | 显示全部楼层
好东西啊 很棒 尤其是第一张 是个人很喜欢的风格

0

主题

246

帖子

475

积分

职业歌手

Rank: 3Rank: 3

积分
475

社区QQ达人

发表于 2015-5-12 23:22:43 | 显示全部楼层
好歌就要收藏,放在车上慢慢听

0

主题

742

帖子

1709

积分

当红偶像

Rank: 4

积分
1709
发表于 2015-5-13 00:06:29 | 显示全部楼层
老歌很耐听啊,很喜欢,楼主辛苦了!

4

主题

2453

帖子

1125

积分

职业歌手

Rank: 3Rank: 3

积分
1125

社区QQ达人灌水勋章

发表于 2015-5-13 08:57:40 | 显示全部楼层
我是不是没有权利下呀 希望楼主发个不是原抓的

4

主题

2453

帖子

1125

积分

职业歌手

Rank: 3Rank: 3

积分
1125

社区QQ达人灌水勋章

发表于 2015-5-13 09:00:46 | 显示全部楼层


还行能下 感谢楼主分享了

0

主题

1827

帖子

2684

积分

当红偶像

Rank: 4

积分
2684
发表于 2015-5-13 12:25:55 | 显示全部楼层
非常感谢楼主分享,收藏了,楼主辛苦啦!

1

主题

271

帖子

544

积分

职业歌手

Rank: 3Rank: 3

积分
544

社区QQ达人

发表于 2015-5-13 14:13:11 | 显示全部楼层
很强大啊!分享这么多!非常感谢!!!

0

主题

73

帖子

204

积分

乐坛新星

Rank: 2

积分
204

社区QQ达人

发表于 2015-5-13 14:36:38 | 显示全部楼层
好歌。下载来听听!好歌。下载来听听!好歌。下载来听听!好歌。下载来听听!

0

主题

52

帖子

139

积分

新人会员,请认真回复,若恶意回复,直接封号

Rank: 1

积分
139

社区QQ达人

发表于 2015-5-13 15:49:58 | 显示全部楼层
怎么治看到第一张的下载地址呢?其它的隐藏了?

0

主题

75

帖子

190

积分

乐坛新星

Rank: 2

积分
190

社区QQ达人

发表于 2015-5-13 17:23:03 | 显示全部楼层
醉耳出品必属精品,谢谢醉耳的分享哈!

0

主题

3

帖子

17

积分

新人会员,请认真回复,若恶意回复,直接封号

Rank: 1

积分
17
发表于 2015-5-13 22:51:20 | 显示全部楼层
很好的专辑,都是爱听的歌 谢谢分享
您需要登录后才可以回帖 登录 | 注册

本版积分规则

快速回复 返回顶部 返回列表