查看: 3783|回复: 94

Paul Mccartney&Wings《Band On The Run》2010重制版 原抓WAV/整轨

[复制链接]

383

主题

671

帖子

3万

积分

音乐制作人

Rank: 12Rank: 12Rank: 12

积分
35947

社区QQ达人

发表于 2015-3-7 15:02:27 | 显示全部楼层 |阅读模式

注册会员,获得无损资源下载地址,享受高品质音乐。

您需要 登录 才可以下载或查看,没有帐号?注册

x
照片_20150303_154724.jpg

1973年,Paul和以他为核心的Wings乐队发行了《Band On The Run》专辑。这是Paul在Beatles解散之后的最叫好叫座的个人作品。

在1970到1973年,Paul以最快的速度创作了一大批流行摇滚的作品,但很可惜都未能达到歌迷的预期,评论界差评不断,销量也勉强维持在50万份/张的生死线上。73年的Band On The Run使他重新回到了披头士后期的水准。而当时侬哥刚刚走出了《Some Time in New York City》失败的阴影,依靠曲目质量参差不齐的《Mind Games》缓了口气。也正是这张“眉目传情”的专辑缓和了John和Paul紧张的个人关系,John很罕见的对Paul赞誉有加。

专辑中除了那首No Word我的印象不深(这首太短了,而其他的有太好了),其他的给人感觉都不错,很贴近披头士后期的音乐风格。复杂的器乐演奏营造了管怪陆离的时尚感,给人一种Beatles的灵感之光照入雅皮士时代的感觉。




  1. Exact Audio Copy V1.0 beta 4 from 7. December 2014

  2. EAC 抓取日志文件从7. 三月 2015, 12:29

  3. Paul McCartney & Wings / Band On The Run

  4. 使用驱动器  :OPTIARC DVD-ROM DDU1681S   Adapter: 1  ID: 0

  5. 读取模式      : 可靠Secure
  6. 使用精确流     : 是
  7. 清空音频缓存    : 是
  8. 使用 C2 指示器 : 否

  9. 读取偏移校正:               : 6
  10. 读取 Lead-In 和 Lead-Out : 否
  11. 用静音填充抓取中丢失偏移的采样       : 是
  12. 去除首尾静音块               : 否
  13. 在CRC 计算中使用了空样本       : 是
  14. 已用接口                  : Win NT 及 2000 本地 Win32 接口

  15. 所用输出模式: : 内部 WAV 函数
  16. 样本格式    : 44.100 Hz; 16 Bit; 立体声


  17. 已抓取 CD 的 TOC

  18.      音轨 |    起始    |    长度    |  起始扇区  |  结束扇区  
  19.     --------------------------------------------
  20.       1 |  0:00.00 |  5:13.65 |      0 |  23539
  21.       2 |  5:13.65 |  4:09.02 |  23540 |  42216
  22.       3 |  9:22.67 |  3:25.25 |  42217 |  57616
  23.       4 | 12:48.17 |  4:41.60 |  57617 |  78751
  24.       5 | 17:30.02 |  4:50.28 |  78752 | 100529
  25.       6 | 22:20.30 |  4:50.67 | 100530 | 122346
  26.       7 | 27:11.22 |  2:36.18 | 122347 | 134064
  27.       8 | 29:47.40 |  5:49.32 | 134065 | 160271
  28.       9 | 35:36.72 |  5:31.64 | 160272 | 185160


  29. 范围状态及错误

  30. 已选择范围

  31.      文件名 F:\原抓\Paul McCartney & Wings - Band On The Run\Paul McCartney & Wings - Band On The Run.wav

  32.      峰值电平 98.3 %
  33.      抓取速度 2.9 X
  34.      范围质量 100.0 %
  35.      测试 CRC 383FBDE6
  36.      复制 CRC 383FBDE6
  37.      复制成功

  38. 没有错误发生


  39. AccurateRip 摘要

  40. 音轨  1  精确地校准抓取  200)  [A172C281]  (AR v2)
  41. 音轨  2  精确地校准抓取  200)  [B890E9F2]  (AR v2)
  42. 音轨  3  精确地校准抓取  200)  [BED4638B]  (AR v2)
  43. 音轨  4  精确地校准抓取  200)  [5B3BB4AC]  (AR v2)
  44. 音轨  5  精确地校准抓取  200)  [8A7F26B1]  (AR v2)
  45. 音轨  6  精确地校准抓取  200)  [187D37AF]  (AR v2)
  46. 音轨  7  精确地校准抓取  200)  [03341E59]  (AR v2)
  47. 音轨  8  精确地校准抓取  200)  [E7BBDCC7]  (AR v2)
  48. 音轨  9  精确地校准抓取  200)  [77F4E761]  (AR v2)

  49. 所有音轨精确校准抓取

  50. 状态报告结尾

  51. ---- CUETools DB Plugin V2.1.4

  52. [CTDB TOCID: ZLq5Ttb3Z2ybvQCoMRx1XK2e.zg-] found
  53. Submit result: ZLq5Ttb3Z2ybvQCoMRx1XK2e.zg- has been confirmed
  54. Track | CTDB Status
  55.   1   | (146/146) Accurately ripped
  56.   2   | (146/146) Accurately ripped
  57.   3   | (146/146) Accurately ripped
  58.   4   | (146/146) Accurately ripped
  59.   5   | (146/146) Accurately ripped
  60.   6   | (146/146) Accurately ripped
  61.   7   | (146/146) Accurately ripped
  62.   8   | (146/146) Accurately ripped
  63.   9   | (146/146) Accurately ripped


  64. ==== 记录校验日志 2939D2B475E890EDC9DB32DE535ECABE9ED5A630F9A84DFD2F3D3E9818C55852 ====
复制代码



01. Band on the Run
02. Jet
03. Bluebird
04. Mrs Vandebilt
05. Let Me Roll It
06. Mamunia
07. No Words
08. Picasso’s Last Words (Drink to Me)
09. Nineteen Hundred and Eighty Five



禁止转载。




下载地址

游客,如果您要查看本帖隐藏内容请回复




上一篇:Beyonce《Dangerously In Love 2002-2003/2003》SACD-R/ISO/BD/3.79G
下一篇:节奏布鲁斯-鲁弗斯.托马斯-The Very Best Of Rufus Thomas分轨WAV

0

主题

289

帖子

-688

积分

恶意回复被扣没分了,积分增加方法见置顶帖

积分
-688

社区QQ达人

发表于 2015-3-7 15:16:00 | 显示全部楼层
坚决收了,永恒的乐队,谢谢楼主分享

0

主题

667

帖子

-1159

积分

恶意回复被扣没分了,积分增加方法见置顶帖

积分
-1159
发表于 2015-3-8 09:56:19 | 显示全部楼层
當年 Beatles 成員裡面最活躍的一位, 至今依然可以看到他的風采

1

主题

332

帖子

-210

积分

恶意回复被扣没分了,积分增加方法见置顶帖

积分
-210
发表于 2015-3-10 13:16:57 | 显示全部楼层
感谢楼主分享---------------------------------
integral

0

主题

551

帖子

2091

积分

当红偶像

Rank: 4

积分
2091

社区QQ达人

发表于 2015-3-10 16:21:23 | 显示全部楼层
感谢楼主的无私分享,音乐很好听!!!

0

主题

939

帖子

1869

积分

当红偶像

Rank: 4

积分
1869
发表于 2015-3-10 22:10:05 | 显示全部楼层
歌手的发型很怀旧,歌曲风格也有种怀旧的感觉哦!!!!

0

主题

6

帖子

112

积分

新人会员,请认真回复,若恶意回复,直接封号

Rank: 1

积分
112

社区QQ达人

发表于 2015-3-11 16:48:31 | 显示全部楼层
谢谢LZ分享 很好听的音乐,收藏了。。

0

主题

35

帖子

35

积分

新人会员,请认真回复,若恶意回复,直接封号

Rank: 1

积分
35
发表于 2015-3-15 08:17:56 | 显示全部楼层
在1970到1973年,Paul以最快的速度创作了一大批流行摇滚的作品,但很可惜都未能达到歌迷的预期,评论界差评不断,销量也勉强维持在50万份/张的生死线上。73年的Band On The Run使他重新回到了披头士后期的水准。而当时侬哥刚刚走出了《Some Time in New York City》失败的阴影,依靠曲目质量参差不齐的《Mind Games》缓了口气。也正是这张“眉目传情”的专辑缓和了John和Paul紧张的个人关系,John很罕见的对Paul赞誉有加。

评分

参与人数 1CD -62 收起 理由
汉尼拔锟 -62 禁止复制内容,进行粘贴回复

查看全部评分

integral

0

主题

24

帖子

121

积分

新人会员,请认真回复,若恶意回复,直接封号

Rank: 1

积分
121

社区QQ达人

发表于 2015-3-15 14:37:43 | 显示全部楼层
这音乐不错,比较适合在酒吧里边放,哈哈!!!

0

主题

884

帖子

1808

积分

当红偶像

Rank: 4

积分
1808
发表于 2015-3-15 23:26:32 | 显示全部楼层
还真是贴近披头士后期的音乐风格               

integral

0

主题

130

帖子

928

积分

职业歌手

Rank: 3Rank: 3

积分
928
发表于 2015-3-16 05:47:14 | 显示全部楼层
谢谢你太感谢你了谢谢你分享哈哈哈哈哈哈哈

0

主题

47

帖子

114

积分

新人会员,请认真回复,若恶意回复,直接封号

Rank: 1

积分
114

社区QQ达人

发表于 2015-3-18 09:13:50 | 显示全部楼层
喜欢这几首音乐,谢谢LZ提供!~

5

主题

105

帖子

418

积分

乐坛新星

Rank: 2

积分
418

社区QQ达人

发表于 2015-3-19 21:17:54 | 显示全部楼层
专辑真的不错,适合酒吧播出,网友说的是事实。

0

主题

261

帖子

445

积分

乐坛新星

Rank: 2

积分
445
发表于 2015-3-20 22:49:04 | 显示全部楼层
没听过,听听巅峰中的保罗。收下,晚上一个人听

0

主题

287

帖子

770

积分

职业歌手

Rank: 3Rank: 3

积分
770

社区QQ达人

发表于 2015-3-21 17:53:48 | 显示全部楼层
live的 我喜欢 先去下了再说,感谢楼主.
您需要登录后才可以回帖 登录 | 注册

本版积分规则

快速回复 返回顶部 返回列表