查看: 2020|回复: 58

George Harrison 乔治哈里森《Early Takes Vol.1》 原抓WAV/整轨/快传

[复制链接]

383

主题

671

帖子

3万

积分

音乐制作人

Rank: 12Rank: 12Rank: 12

积分
35953

社区QQ达人

发表于 2015-2-17 16:05:04 | 显示全部楼层 |阅读模式

注册会员,获得无损资源下载地址,享受高品质音乐。

您需要 登录 才可以下载或查看,没有帐号?注册

x
照片_20150216_171533.jpg

又是一张原声,是美国导演马丁斯科塞斯的纪录片作品《活在物质世界》的配乐,是George Harrison在1970-1975年之间的作品Demo收录,由George Harrison的遗孀Olivia和儿子Dahani制作。


10首歌Acoustic歌曲,大多是George自弹吉他,简单干净的演唱,音质爆好,完成度高。


以前我很喜欢Phil Spector给George制作的All things must pass,那种厚重的声墙效果,但久了就发现嗓音缺乏力度的George对比Tina Turner这种嗓音大神是无法支撑声墙这种音效的,相比之下民谣摇滚的弹唱感觉更好些。


非常喜欢里面的第六首《女人别为我哭泣》 在旋律上成功高仿了Lennon,跟侬哥《John Sinclair》太像了,就是同素异形体。
同样推荐的还有很经典的情歌 Let it be me,和神曲The Light That Has Lighted The World
  1. Exact Audio Copy V1.0 beta 4 from 7. December 2014

  2. EAC 抓取日志文件从16. 二月 2015, 18:05

  3. George Harrison  / Early Takes Volume 1

  4. 使用驱动器  :OPTIARC DVD-ROM DDU1681S   Adapter: 1  ID: 0

  5. 读取模式      : 可靠Secure
  6. 使用精确流     : 是
  7. 清空音频缓存    : 是
  8. 使用 C2 指示器 : 否

  9. 读取偏移校正:               : 6
  10. 读取 Lead-In 和 Lead-Out : 否
  11. 用静音填充抓取中丢失偏移的采样       : 是
  12. 去除首尾静音块               : 否
  13. 在CRC 计算中使用了空样本       : 是
  14. 已用接口                  : Win NT 及 2000 本地 Win32 接口

  15. 所用输出模式: : 内部 WAV 函数
  16. 样本格式    : 44.100 Hz; 16 Bit; 立体声


  17. 已抓取 CD 的 TOC

  18.      音轨 |    起始    |    长度    |  起始扇区  |  结束扇区  
  19.     --------------------------------------------
  20.       1 |  0:00.00 |  3:34.12 |      0 |  16061
  21.       2 |  3:34.12 |  1:55.45 |  16062 |  24731
  22.       3 |  5:29.57 |  3:06.16 |  24732 |  38697
  23.       4 |  8:35.73 |  3:05.27 |  38698 |  52599
  24.       5 | 11:41.25 |  2:56.00 |  52600 |  65799
  25.       6 | 14:37.25 |  2:43.53 |  65800 |  78077
  26.       7 | 17:21.03 |  2:40.74 |  78078 |  90151
  27.       8 | 20:02.02 |  3:29.05 |  90152 | 105831
  28.       9 | 23:31.07 |  4:39.54 | 105832 | 126810
  29.      10 | 28:10.61 |  2:23.00 | 126811 | 137535


  30. 范围状态及错误

  31. 已选择范围

  32.      文件名 F:\原抓\George Harrison  - Early Takes Volume 1\George Harrison  - Early Takes Volume 1.wav

  33.      峰值电平 98.7 %
  34.      抓取速度 3.0 X
  35.      范围质量 99.8 %
  36.      测试 CRC 7B0A2E5D
  37.      复制 CRC 7B0A2E5D
  38.      复制成功

  39. 没有错误发生


  40. AccurateRip 摘要

  41. 音轨  1  精确地校准抓取  65)  [9190775A]  (AR v2)
  42. 音轨  2  精确地校准抓取  64)  [8E126913]  (AR v2)
  43. 音轨  3  精确地校准抓取  64)  [63829DF4]  (AR v2)
  44. 音轨  4  精确地校准抓取  64)  [80BAC014]  (AR v2)
  45. 音轨  5  精确地校准抓取  64)  [B271E5D9]  (AR v2)
  46. 音轨  6  精确地校准抓取  64)  [ACD4E520]  (AR v2)
  47. 音轨  7  精确地校准抓取  64)  [65356024]  (AR v2)
  48. 音轨  8  精确地校准抓取  64)  [98E6DA2E]  (AR v2)
  49. 音轨  9  精确地校准抓取  64)  [FD1F6596]  (AR v2)
  50. 音轨 10  精确地校准抓取  64)  [C555E3D6]  (AR v2)

  51. 所有音轨精确校准抓取

  52. 状态报告结尾

  53. ---- CUETools DB Plugin V2.1.4

  54. [CTDB TOCID: fVYZIgYY3xzsTVkHQZOo_onMELs-] database access error: 操作超时


  55. ==== 记录校验日志 456B3B8AEAA3A60F7541A1A91E7538AE6598275A330523FAE3FB7597CD29F9DF ====
复制代码




01. My Sweet Lord (demo)  
02. Run Of The Mill (demo)  
03. I’d Have You Any Time (early take)  
04. Mama You’ve Been On My Mind (demo)  
05. Let It Be Me (demo)  
06. Woman Don’t You Cry For Me (early take)  
07. Awaiting On You All (early take)  
08. Behind That Locked Door (demo)  
09. All Things Must Pass (demo)  
10. The Light That Has Lighted The World (demo)

严禁转载。


下载地址:
游客,如果您要查看本帖隐藏内容请回复

评分

参与人数 1CD +100 包子 +2 收起 理由
dimalam + 100 + 2 很棒的帖子,支持

查看全部评分




上一篇:黑眼豆豆:The Black Eyed Peas《22CD》1998-2010/FLAC/BD+115/6.41G
下一篇:《Tony Bennett与朋友们演唱布鲁斯》SACD/ISO/3.2G/BD

0

主题

939

帖子

1870

积分

当红偶像

Rank: 4

积分
1870
发表于 2015-2-17 19:19:38 | 显示全部楼层
像男人又像女人!!!!

0

主题

71

帖子

157

积分

乐坛新星

Rank: 2

积分
157
发表于 2015-2-19 14:35:16 | 显示全部楼层
thank you so much~~~~~~~~~~~~~~~~

22

主题

404

帖子

4173

积分

人气天王

Rank: 5Rank: 5

积分
4173

社区QQ达人

发表于 2015-2-19 15:45:43 | 显示全部楼层
喜歡George,感谢分享,楼主辛苦了!!!!!

0

主题

110

帖子

225

积分

乐坛新星

Rank: 2

积分
225
发表于 2015-2-20 13:13:35 | 显示全部楼层
George Harrison 乔治哈里森的歌!喜欢!收藏了!谢谢

0

主题

159

帖子

208

积分

乐坛新星

Rank: 2

积分
208
发表于 2015-2-20 21:54:22 | 显示全部楼层
感谢分享 音乐很好听呢

2

主题

783

帖子

971

积分

职业歌手

Rank: 3Rank: 3

积分
971

社区QQ达人

发表于 2015-2-23 16:36:59 | 显示全部楼层
又是一张精品专辑,是可以唱到内心的歌,支持

0

主题

667

帖子

-1159

积分

恶意回复被扣没分了,积分增加方法见置顶帖

积分
-1159
发表于 2015-2-25 08:08:36 | 显示全部楼层
樓主很用心地介紹這張專輯與原唱, 謝謝樓主熱心分享

0

主题

68

帖子

158

积分

乐坛新星

Rank: 2

积分
158

社区QQ达人

发表于 2015-2-26 09:52:12 | 显示全部楼层
感谢分享,很喜欢这种风格~~~~~~~~~~~~~~~~~~~~~~~~~~~~·

0

主题

21

帖子

83

积分

新人会员,请认真回复,若恶意回复,直接封号

Rank: 1

积分
83

社区QQ达人

发表于 2015-2-27 17:59:41 | 显示全部楼层
感谢楼主的分享,很喜欢,很享受这些曲子
integral

0

主题

234

帖子

420

积分

乐坛新星

Rank: 2

积分
420

社区QQ达人

发表于 2015-3-2 17:00:33 | 显示全部楼层
thank you so much
感谢楼主的分享,很喜欢
integral

0

主题

130

帖子

928

积分

职业歌手

Rank: 3Rank: 3

积分
928
发表于 2015-3-16 05:52:11 | 显示全部楼层
谢谢你太感谢你了谢谢你分享哈哈哈哈哈哈哈哈哈哈哈

0

主题

287

帖子

770

积分

职业歌手

Rank: 3Rank: 3

积分
770

社区QQ达人

发表于 2015-3-22 10:36:23 | 显示全部楼层
感觉每首歌都好经典啊,非常感谢分享
integral

0

主题

551

帖子

2091

积分

当红偶像

Rank: 4

积分
2091

社区QQ达人

发表于 2015-3-22 12:32:04 | 显示全部楼层
自我感觉每首歌都好听啊,非常感谢楼主分享!!你是我们学习的榜样!!!

0

主题

78

帖子

139

积分

新人会员,请认真回复,若恶意回复,直接封号

Rank: 1

积分
139

社区QQ达人

发表于 2015-3-22 16:21:02 | 显示全部楼层
d5zo[size=11.999999046325684px]RE: George Harrison 乔治哈里森《Early Takes Vol.1》 原抓WAV/整轨/快传 [[size=11.999999046325684px][url=]修改[/url][size=11.999999046325684px]][size=11.999999046325684px]





[size=11.999999046325684px]

您需要登录后才可以回帖 登录 | 注册

本版积分规则

快速回复 返回顶部 返回列表