最近看过此主题的会员

查看: 644|回复: 6

原抓《动感新时代》VOL.107 CD WAV/分轨/度盘 附DVD

[复制链接]
 成长值: 5235

235

主题

1201

帖子

6万

积分

VIP4

Rank: 7Rank: 7Rank: 7

积分
61046
发表于 2017-7-7 18:23:13 | 显示全部楼层 |阅读模式

注册会员,获得无损资源下载地址,享受高品质音乐。

您需要 登录 才可以下载或查看,没有帐号?注册

x
IMG_20170707_174133_1.jpg
各位,我又回来骗分啦!以后的资源不定期更新。这期是两张DVD,除了正片外,还有一张MACROSS F 的“超时空SUPER LIVE”圣诞真人演唱会,喜欢就收吧。另外,从这期开始,WAV文件除了歌名外,我把原作品的名称也加上啦。
第107期 天皓
01.TV动画「Fate/Zero」OP「oath sign」
02.TV动画「罪恶王冠」OP「My Dearest」
03.TV动画「罪恶王冠」IN「欧忒耳佩[エウテルペ]」
04.TV动画「罪恶王冠」ED「Departures~献给你的爱之歌~[Departures~あなたにおくるアイの歌~]」
05.TV动画「少年同盟」OP「拜拜[バイバイ]」
06.TV动画「少年同盟」ED「爱哭鬼[なきむし。]」
07.TV动画「WORKING'!!」OP「COOLISH WALK」
08.TV动画「WORKING'!!」ED「一如既往LOVE&PEACE!![いつものようにLOVE&PEACE!!]」
09.OVA「机动战士高达UC」ED4「B-Bird」
10.TV动画「机动战士高达AGE」ED「你心中的英雄[君の中の英雄]」
11.TV动画「花牌情缘」OP「YOUTHFUL」
12.TV动画「灼眼的夏娜Ⅲ -FINAL-」OP「Light My Fire」
13.TV动画「未来日记」OP「空想神话[空想メソロギヰ]」
14.TV动画「UN-GO」ED「Fantasy」

DVD MTV:
这期DVD里没有MTV。


CD链接:
游客,如果您要查看本帖隐藏内容请回复

密码:
游客,如果您要查看本帖隐藏内容请回复

DVD链接:
游客,如果您要查看本帖隐藏内容请回复

密码:
游客,如果您要查看本帖隐藏内容请回复

圣诞演唱会链接:
游客,如果您要查看本帖隐藏内容请回复
密码:
游客,如果您要查看本帖隐藏内容请回复

解压密码均为:www.cdbao.net



Exact Audio Copy V1.1 from 23. June 2015

EAC 抓取日志文件从6. 七月 2017, 17:12

未知艺术家 / 未知标题

使用驱动器  :SONY    DVD RW DRU-V200A   Adapter: 1  ID: 1

读取模式      : 可靠Secure
使用精确流     : 是
清空音频缓存    : 否
使用 C2 指示器 : 是

读取偏移校正:               : 48
读取 Lead-In 和 Lead-Out : 否
用静音填充抓取中丢失偏移的采样       : 是
去除首尾静音块               : 否
在CRC 计算中使用了空样本       : 是
已用接口                  : Win NT 及 2000 本地 Win32 接口
间隙处理                  : 没检测到,因此追加到上一曲目

所用输出模式: : 内部 WAV 函数
样本格式    : 44.100 Hz; 16 Bit; 立体声


已抓取 CD 的 TOC

     音轨 |    起始    |    长度    |  起始扇区  |  结束扇区  
    --------------------------------------------
      1 |  0:00.00 |  4:12.00 |      0 |  18899
      2 |  4:12.00 |  5:39.38 |  18900 |  44362
      3 |  9:51.38 |  3:49.00 |  44363 |  61537
      4 | 13:40.38 |  4:16.37 |  61538 |  80774
      5 | 17:57.00 |  5:02.60 |  80775 | 103484
      6 | 22:59.60 |  5:11.00 | 103485 | 126809
      7 | 28:10.60 |  4:11.71 | 126810 | 145705
      8 | 32:22.56 |  4:37.00 | 145706 | 166480
      9 | 36:59.56 |  4:56.00 | 166481 | 188680
     10 | 41:55.56 |  4:35.37 | 188681 | 209342
     11 | 46:31.18 |  3:41.37 | 209343 | 225954
     12 | 50:12.55 |  3:49.37 | 225955 | 243166
     13 | 54:02.17 |  4:01.37 | 243167 | 261278
     14 | 58:03.54 |  3:33.37 | 261279 | 277290


音轨  1

     文件名 K:\音乐\动感新势力\VOL.107\学习资料\01 音轨01 - 未知艺术家.wav

     峰值电平 100.0 %
     抓取速度 3.7 X
     音轨质量 100.0 %
     复制 CRC 9B9C406F
     精确校准地抓取  1)  [34D5D78E]  (AR v2)
     复制成功

音轨  2

     文件名 K:\音乐\动感新势力\VOL.107\学习资料\02 音轨02 - 未知艺术家.wav

     峰值电平 99.8 %
     抓取速度 3.9 X
     音轨质量 100.0 %
     复制 CRC 96EE22C4
     精确校准地抓取  1)  [004430F3]  (AR v2)
     复制成功

音轨  3

     文件名 K:\音乐\动感新势力\VOL.107\学习资料\03 音轨03 - 未知艺术家.wav

     峰值电平 98.7 %
     抓取速度 3.8 X
     音轨质量 100.0 %
     复制 CRC F2876DB7
     精确校准地抓取  1)  [81309361]  (AR v2)
     复制成功

音轨  4

     文件名 K:\音乐\动感新势力\VOL.107\学习资料\04 音轨04 - 未知艺术家.wav

     峰值电平 99.8 %
     抓取速度 3.8 X
     音轨质量 99.9 %
     复制 CRC 9DB420F8
     精确校准地抓取  1)  [BA79E905]  (AR v2)
     复制成功

音轨  5

     文件名 K:\音乐\动感新势力\VOL.107\学习资料\05 音轨05 - 未知艺术家.wav

     峰值电平 99.8 %
     抓取速度 4.0 X
     音轨质量 100.0 %
     复制 CRC 7A64AE78
     精确校准地抓取  1)  [191E9AB1]  (AR v2)
     复制成功

音轨  6

     文件名 K:\音乐\动感新势力\VOL.107\学习资料\06 音轨06 - 未知艺术家.wav

     峰值电平 100.0 %
     抓取速度 3.8 X
     音轨质量 99.9 %
     复制 CRC 7CF996F5
     精确校准地抓取  1)  [25793F25]  (AR v2)
     复制成功

音轨  7

     文件名 K:\音乐\动感新势力\VOL.107\学习资料\07 音轨07 - 未知艺术家.wav

     峰值电平 100.0 %
     抓取速度 3.8 X
     音轨质量 100.0 %
     复制 CRC F21D73B5
     精确校准地抓取  1)  [2538C84A]  (AR v2)
     复制成功

音轨  8

     文件名 K:\音乐\动感新势力\VOL.107\学习资料\08 音轨08 - 未知艺术家.wav

     峰值电平 100.0 %
     抓取速度 3.9 X
     音轨质量 100.0 %
     复制 CRC 505FF2DC
     精确校准地抓取  1)  [8B2040E2]  (AR v2)
     复制成功

音轨  9

     文件名 K:\音乐\动感新势力\VOL.107\学习资料\09 音轨09 - 未知艺术家.wav

     峰值电平 99.9 %
     抓取速度 3.8 X
     音轨质量 100.0 %
     复制 CRC 309B1E08
     精确校准地抓取  1)  [8F64EF1D]  (AR v2)
     复制成功

音轨 10

     文件名 K:\音乐\动感新势力\VOL.107\学习资料\10 音轨10 - 未知艺术家.wav

     峰值电平 98.8 %
     抓取速度 3.8 X
     音轨质量 100.0 %
     复制 CRC B18839B5
     精确校准地抓取  1)  [63C3601B]  (AR v2)
     复制成功

音轨 11

     文件名 K:\音乐\动感新势力\VOL.107\学习资料\11 音轨11 - 未知艺术家.wav

     峰值电平 98.8 %
     抓取速度 3.8 X
     音轨质量 99.9 %
     复制 CRC D3EA3612
     精确校准地抓取  1)  [5D47AF58]  (AR v2)
     复制成功

音轨 12

     文件名 K:\音乐\动感新势力\VOL.107\学习资料\12 音轨12 - 未知艺术家.wav

     峰值电平 100.0 %
     抓取速度 3.9 X
     音轨质量 100.0 %
     复制 CRC 22443F4D
     精确校准地抓取  1)  [F5F57BE5]  (AR v2)
     复制成功

音轨 13

     文件名 K:\音乐\动感新势力\VOL.107\学习资料\13 音轨13 - 未知艺术家.wav

     峰值电平 100.0 %
     抓取速度 3.8 X
     音轨质量 100.0 %
     复制 CRC 8D7C5427
     不能准确地校验 (确认 1)  [95D333A2], 返回 AccurateRip [613DA736]  (AR v2)
     复制成功

音轨 14

     文件名 K:\音乐\动感新势力\VOL.107\学习资料\14 音轨14 - 未知艺术家.wav

     峰值电平 100.0 %
     抓取速度 3.7 X
     音轨质量 99.9 %
     复制 CRC 41F196BF
     精确校准地抓取  1)  [8591982C]  (AR v2)
     复制成功


13 音轨精确校准抓取
1 音轨不能准确校验

一些音轨不能准确地校验

没有错误发生

状态报告结尾

---- CUETools DB Plugin V2.1.6

[CTDB TOCID: nwY0sf9z6fO29YvA4IUYUwTDeSI-] found
Submit result: nwY0sf9z6fO29YvA4IUYUwTDeSI- has been confirmed
Track | CTDB Status
  1   | (8/8) Accurately ripped
  2   | (8/8) Accurately ripped
  3   | (8/8) Accurately ripped
  4   | (8/8) Accurately ripped
  5   | (8/8) Accurately ripped
  6   | (8/8) Accurately ripped
  7   | (8/8) Accurately ripped
  8   | (8/8) Accurately ripped
  9   | (8/8) Accurately ripped
10   | (8/8) Accurately ripped
11   | (8/8) Accurately ripped
12   | (8/8) Accurately ripped
13   | (8/8) Accurately ripped
14   | (8/8) Accurately ripped



评分

参与人数 1CD +320 收起 理由
最终之战 + 320 感谢分享资源,CD包因你而精彩.

查看全部评分




上一篇:索尼小金标 Hi-Res: μ's 1~5整合 96kHz32bit 百度云
下一篇:地狱之歌 Hellsing 原声,OST,特典《10CD》EAC/百度/4.41GB

0

主题

114

帖子

990

积分

职业歌手

Rank: 3Rank: 3

积分
990
发表于 2017-7-7 19:07:22 | 显示全部楼层
喔唷,上一起买动感新时代,已经是15年前了。。

0

主题

23

帖子

214

积分

乐坛新星

Rank: 2

积分
214
发表于 2017-7-8 09:00:56 | 显示全部楼层
感谢分享精彩的音乐!^_^

0

主题

8

帖子

66

积分

新人会员,请认真回复,若恶意回复,直接封号

Rank: 1

积分
66
发表于 2017-7-17 20:45:18 | 显示全部楼层
好久没听动感新时代了。。

0

主题

319

帖子

866

积分

职业歌手

Rank: 3Rank: 3

积分
866

社区QQ达人

发表于 2017-8-1 16:50:49 | 显示全部楼层
感谢分享好碟 超级棒的资源

0

主题

93

帖子

175

积分

乐坛新星

Rank: 2

积分
175
发表于 2017-8-1 17:36:45 | 显示全部楼层
好喜欢这个,谢谢楼主分享

0

主题

1

帖子

57

积分

新人会员,请认真回复,若恶意回复,直接封号

Rank: 1

积分
57
发表于 2017-9-7 21:48:57 | 显示全部楼层
谢谢分享,这个找了很久了。
您需要登录后才可以回帖 登录 | 注册

本版积分规则

快速回复 返回顶部 返回列表