查看: 289|回复: 5

[MV] Jennifer Lopez feat.Wisin & Ricky Martin - Adrenalina 1080P MOV

[复制链接]
 成长值: 19590

6469

主题

1万

帖子

8万

积分

音乐掌门人

Rank: 20Rank: 20Rank: 20Rank: 20Rank: 20

积分
83834

名人勋章社区QQ达人分享勋章精华帖达人灌水勋章

发表于 2016-7-22 10:15:54 | 显示全部楼层 |阅读模式

注册会员,获得无损资源下载地址,享受高品质音乐。

您需要 登录 才可以下载或查看,没有帐号?注册

x
Wisin feat. Jennifer Lopez & Ricky Martin - Adrenalina (AAC-Master-1080p-H264).m.jpg
Wisin feat. Jennifer Lopez & Ricky Martin - Adrenalina (AAC-Master-1080p-H264).m.jpg

Wisin feat. Jennifer Lopez & Ricky Martin - Adrenalina


Жанр: Pop, Dance
Продолжительность: 00:04:25
Год выпуска: 2014
Качество: Master
Контейнер: MOV
Видео кодек: H.264
Аудио кодек: AAC
Видео: AVC, 1888x1062, 10.4 (Mbps), 23.976 (fps)
Аудио: 48.0 (kHz), AAC, 2 (ch), 288 (kbps)
Отчёт MediaInfo / BDInfo

Общее
Полное имя                               : Wisin ft. Jennifer Lopez & Ricky Martin - Adrenalina (AAC-Master-1080p-H264).mov
Формат                                   : MPEG-4
Профиль формата                          : QuickTime
Идентификатор кодека                     : qt
Размер файла                             : 340 Мбайт
Продолжительность                        : 4 м. 25 с.
Режим общего битрейта                    : Переменный
Общий поток                              : 10,7 Мбит/сек
Дата кодирования                         : UTC 2014-02-28 04:48:43
Дата пометки                             : UTC 2014-02-28 04:52:54
Программа кодирования                    : Mac OS X v10.8.5 (CMA 914, CM 926.106, x86_64)
Видео
Идентификатор                            : 1
Формат                                   : AVC
Формат/Информация                        : Advanced Video Codec
Профиль формата                          : [email protected]
Параметр CABAC формата                   : Нет
Параметр ReFrames формата                : 2 кадра
Идентификатор кодека                     : avc1
Идентификатор кодека/Информация          : Advanced Video Coding
Продолжительность                        : 4 м. 25 с.
Битрейт                                  : 10,4 Мбит/сек
Ширина                                   : 1888 пикселей
Высота                                   : 1062 пикселя
Соотношение сторон                       : 16:9
Режим частоты кадров                     : Переменный
Частота кадров                           : 23,976 кадра/сек
Минимальная частота кадров               : 23,974 кадра/сек
Максимальная частота кадров              : 23,981 кадра/сек
Цветовое пространство                    : YUV
Субдискретизация насыщенности            : 4:2:0
Битовая глубина                          : 8 бит
Тип развёртки                            : Прогрессивная
Бит/(Пиксели*Кадры)                      : 0.217
Размер потока                            : 331 Мбайт (97%)
Язык                                     : English
Дата кодирования                         : UTC 2014-02-28 04:48:43
Дата пометки                             : UTC 2014-02-28 04:52:54
Основные цвета                           : BT.709
Характеристики трансфера                 : BT.709
Коэффициенты матрицы                     : BT.709
Аудио
Идентификатор                            : 2
Формат                                   : AAC
Формат/Информация                        : Advanced Audio Codec
Профиль формата                          : LC
Идентификатор кодека                     : 40
Продолжительность                        : 4 м. 25 с.
Продолжительность оригинала              : 4 м. 25 с.
Вид битрейта                             : Переменный
Битрейт                                  : 288 Кбит/сек
Каналы                                   : 2 канала
Расположение каналов                     : Front: L R
Частота                                  : 48,0 КГц
Метод сжатия                             : С потерями
Размер потока                            : 9,01 Мбайт (3%)
Размер потока оригинала                  : 9,01 Мбайт (3%)
Язык                                     : English
Дата кодирования                         : UTC 2014-02-28 04:48:43
Дата пометки                             : UTC 2014-02-28 04:52:54
mdhd_Duration                            : 265795

=================================
百度下载(阿战无损存储)
游客,如果您要查看本帖隐藏内容请回复
来自群组: 欧美流行



上一篇:Jennifer Lopez & Will.I.Am & Mick Jagger - T.H.E (The Hardest Ever)
下一篇:Jennifer Lopez/Pitbull/Claudia Leitte - We Are One(FIFA World Cup 2014)
关于链接失效的说明(度盘+115盘+快传 好友分享的说明)
http://www.cdbao.net/thread-117499-1-1.html     
紧急通告:115,快传等网盘取消了分享功能礼包码链接全部失效
http://www.cdbao.net/thread-122759-1-1.html

1

主题

138

帖子

153

积分

乐坛新星

Rank: 2

积分
153
发表于 2016-7-22 16:45:27 | 显示全部楼层
谢了  楼主  已拿走     

0

主题

160

帖子

709

积分

职业歌手

Rank: 3Rank: 3

积分
709
发表于 2016-7-27 20:23:38 | 显示全部楼层
很不错,很喜欢啊,这首歌啊真的很不错啊

0

主题

53

帖子

117

积分

新人会员,请认真回复,若恶意回复,直接封号

Rank: 1

积分
117
发表于 2016-8-8 16:35:51 | 显示全部楼层
超级喜欢Jennifer   的歌曲  mv倒是没怎么看过下载下来看一下

0

主题

72

帖子

161

积分

乐坛新星

Rank: 2

积分
161
发表于 2016-11-10 16:09:33 | 显示全部楼层
感谢楼主分享,下载收藏了
 成长值: 120

0

主题

128

帖子

990

积分

VIP1

Rank: 4

积分
990
发表于 2016-11-15 06:13:19 | 显示全部楼层
谢谢你太感谢您了··························
您需要登录后才可以回帖 登录 | 注册

本版积分规则

快速回复 返回顶部 返回列表