查看: 222|回复: 2

[LIVE] Jennifer Lopez - Live It Up(Live @ Britain's Got Talent. 28.05.13) 1080i/TS/BD

[复制链接]
 成长值: 19605

6487

主题

1万

帖子

8万

积分

音乐掌门人

Rank: 20Rank: 20Rank: 20Rank: 20Rank: 20

积分
83930

名人勋章社区QQ达人分享勋章精华帖达人灌水勋章

发表于 2016-7-22 09:36:07 | 显示全部楼层 |阅读模式

注册会员,获得无损资源下载地址,享受高品质音乐。

您需要 登录 才可以下载或查看,没有帐号?注册

x
Jennifer Lopez - 'Live It Up' (Live @ Britain's Got Talent. 28.05.jpg
Jennifer Lopez - 'Live It Up' (Live @ Britain's Got Talent. 28.05.jpg

Jennifer Lopez - Live It Up (Live @ Britain's Got Talent)

Жанр: Pop / Dance
Продолжительность: 00:06:17
Год выпуска: 28/05/2013
Качество: HDTV 1080i
Контейнер: TS
Видео кодек: H.264
Аудио кодек: AAC
Видео: MPEG4 Video (H264) 1920x1080i 25fps 12.7Mbps
Аудио: AAC 48000Hz stereo 256kbps

Общее
Идентификатор                            : 1 (0x1)
Полное имя                               : I:\sistem\NEW VIDEOS\Jennifer Lopez - 'Live It Up' (Live @ Britain's Got Talent. 28.05.13) 1080i.ts
Формат                                   : MPEG-TS
Размер файла                             : 613 Мбайт
Продолжительность                        : 6 м. 17 с.
Режим общего битрейта                    : Переменный
Общий поток                              : 13,6 Мбит/сек
Максимальный общий битрейт               : 35,5 Мбит/сек
Видео
Идентификатор                            : 4113 (0x1011)
Идентификатор меню                       : 1 (0x1)
Формат                                   : AVC
Формат/Информация                        : Advanced Video Codec
Профиль формата                          : [email protected]
Параметр CABAC формата                   : Да
Параметр ReFrames формата                : 3 кадра
Идентификатор кодека                     : 27
Продолжительность                        : 6 м. 17 с.
Вид битрейта                             : Переменный
Битрейт                                  : 12,7 Мбит/сек
Максимальный битрейт                     : 18,0 Мбит/сек
Ширина                                   : 1920 пикселей
Высота                                   : 1080 пикселей
Соотношение сторон                       : 16:9
Частота кадров                           : 25,000 кадров/сек
Стандарт вещания                         : PAL
Цветовое пространство                    : YUV
Субдискретизация насыщенности            : 4:2:0
Битовая глубина                          : 8 бит
Тип развёртки                            : Чересстрочная
Порядок развёртки                        : Верхнее поле первое
Бит/(Пиксели*Кадры)                      : 0.245
Размер потока                            : 571 Мбайт (93%)
Основные цвета                           : BT.709
Характеристики трансфера                 : BT.709
Коэффициенты матрицы                     : BT.709
Аудио
Идентификатор                            : 4352 (0x1100)
Идентификатор меню                       : 1 (0x1)
Формат                                   : AAC
Формат/Информация                        : Advanced Audio Codec
Версия формата                           : Version 4
Профиль формата                          : LC
Режим смешивания                         : ADTS
Идентификатор кодека                     : 15
Продолжительность                        : 6 м. 17 с.
Вид битрейта                             : Переменный
Битрейт                                  : 251 Кбит/сек
Каналы                                   : 2 канала
Расположение каналов                     : Front: L R
Частота                                  : 48,0 КГц
Метод сжатия                             : С потерями
Размер потока                            : 11,3 Мбайт (2%)


=======================================
百度下载(阿战无损存储)
游客,如果您要查看本帖隐藏内容请回复
来自群组: 欧美流行



上一篇:Jennifer Lopez - Live It Up(feat.Pitbull)(Live on American Idol 05-16-2013)MPEG
下一篇:Jennifer Lopez - Live on The Tonight Show Starring Jimmy Fallon 16.06.2014 1080i
关于链接失效的说明(度盘+115盘+快传 好友分享的说明)
http://www.cdbao.net/thread-117499-1-1.html     
紧急通告:115,快传等网盘取消了分享功能礼包码链接全部失效
http://www.cdbao.net/thread-122759-1-1.html

0

主题

53

帖子

117

积分

新人会员,请认真回复,若恶意回复,直接封号

Rank: 1

积分
117
发表于 2016-8-8 16:48:27 | 显示全部楼层
难道我是沙发  第一次沙发 啊
 成长值: 130

0

主题

128

帖子

990

积分

VIP1

Rank: 4

积分
990
发表于 2016-11-15 06:16:52 | 显示全部楼层
谢谢你太感谢您了·························
您需要登录后才可以回帖 登录 | 注册

本版积分规则

快速回复 返回顶部 返回列表