查看: 233|回复: 3

[LIVE] Jennifer Lopez - Dance Again(HBO Special 31.12.2014) 1080i/TS/BD

[复制链接]
 成长值: 19635

6514

主题

1万

帖子

8万

积分

音乐掌门人

Rank: 20Rank: 20Rank: 20Rank: 20Rank: 20

积分
84207

名人勋章社区QQ达人分享勋章精华帖达人灌水勋章

发表于 2016-7-22 09:26:18 | 显示全部楼层 |阅读模式

注册会员,获得无损资源下载地址,享受高品质音乐。

您需要 登录 才可以下载或查看,没有帐号?注册

x
Jennifer Lopez - 'Jennifer Lopez - Dance Again' (HBO Special 31.12.201.jpg
Jennifer Lopez - 'Jennifer Lopez - Dance Again' (HBO Special 31.12.201.jpg

“Jennifer Lopez: Dance Again” (HBO Special)

Жанр: Pop / Concert / Documentary
Продолжительность: 01:25:41
Перевод: Отсутствует
Год выпуска: 31/12/2014
Описание:
The Puerto Rican singer seems thrilled to ring in the new year with an HBO special called “Jennifer Lopez: Dance Again,”
where she will make you want to get up and dance with a high-energy documentary/concert.
The HBO special will go behind the scenes of J.Lo’s first world tour “Dance Again,”
where she hits 65 cities and five continents, making millions of J.Lovers happy.
It’s also the first time she hit the road with her two young children in tow.
The special includes intimate documentary footage and interviews with Lopez and her closest friends,
who accompanied her on the road, as well as spectacular in-concert renditions of many of her biggest hits,
including “Get Right,” “Love Don’t Cost a Thing,” “I’m Into You,” “Goin’ In,” “Let’s Get Loud,”
“On the Floor,” “I’m Real,” “Do It Well,” “All I Have” and “Dance Again.”
Доп. информация:
Credits to capper: Angel
Качество: HDTV 1080i
Контейнер: TS
Видео кодек: H.264
Аудио кодек: AC3
Видео: MPEG4 Video (H264) 1920x1080i 29.97fps 13.7Mbps
Аудио: Dolby AC3 48000Hz 6ch 384kbps
Отчёт MediaInfo

Общее
Идентификатор                            : 1 (0x1)
Полное имя                               : Jennifer Lopez - 'Jennifer Lopez - Dance Again' (HBO Special 31.12.2014) 1080i HDTV - HDMania.ts
Формат                                   : MPEG-TS
Размер файла                             : 8,85 Гбайт
Продолжительность                        : 1 ч. 25 м.
Режим общего битрейта                    : Переменный
Общий поток                              : 14,8 Мбит/сек
Видео
Идентификатор                            : 4113 (0x1011)
Идентификатор меню                       : 1 (0x1)
Формат                                   : AVC
Формат/Информация                        : Advanced Video Codec
Профиль формата                          : [email protected]
Параметр CABAC формата                   : Да
Параметр ReFrames формата                : 3 кадра
Идентификатор кодека                     : 27
Продолжительность                        : 1 ч. 25 м.
Битрейт                                  : 13,7 Мбит/сек
Ширина                                   : 1920 пикселей
Высота                                   : 1080 пикселей
Соотношение сторон                       : 16:9
Частота кадров                           : 29,970 кадров/сек
Стандарт вещания                         : Component
Цветовое пространство                    : YUV
Субдискретизация насыщенности            : 4:2:0
Битовая глубина                          : 8 бит
Тип развёртки                            : MBAFF
Порядок развёртки                        : Верхнее поле первое
Бит/(Пиксели*Кадры)                      : 0.220
Размер потока                            : 8,18 Гбайт (92%)
Основные цвета                           : BT.709
Характеристики трансфера                 : BT.709
Коэффициенты матрицы                     : BT.709
Аудио
Идентификатор                            : 4352 (0x1100)
Идентификатор меню                       : 1 (0x1)
Формат                                   : AC-3
Формат/Информация                        : Audio Coding 3
Расширение режима                        : CM (complete main)
Параметр Endianness формата              : Big
Идентификатор кодека                     : 129
Продолжительность                        : 1 ч. 25 м.
Вид битрейта                             : Постоянный
Битрейт                                  : 384 Кбит/сек
Каналы                                   : 6 каналов
Расположение каналов                     : Front: L C R, Side: L R, LFE
Частота                                  : 48,0 КГц
Битовая глубина                          : 16 бит
Метод сжатия                             : С потерями
Размер потока                            : 235 Мбайт (3%)
Язык                                     : English

==================================
百度下载(阿战无损存储)
游客,如果您要查看本帖隐藏内容请回复
来自群组: 欧美流行



上一篇:以色列女鼓手Meytal Cohen//Drum Covers/MP4/HD/BD
下一篇:Jennifer Lopez - Live It Up(feat.Pitbull)(Live on American Idol 05-16-2013)MPEG
关于链接失效的说明(度盘+115盘+快传 好友分享的说明)
http://www.cdbao.net/thread-117499-1-1.html     
紧急通告:115,快传等网盘取消了分享功能礼包码链接全部失效
http://www.cdbao.net/thread-122759-1-1.html

0

主题

53

帖子

401

积分

乐坛新星

Rank: 2

积分
401
发表于 2016-7-23 12:29:49 | 显示全部楼层

Jennifer Lopez 的歌手基本都是动感旋律的曲子

1

主题

35

帖子

133

积分

新人会员,请认真回复,若恶意回复,直接封号

Rank: 1

积分
133

社区QQ达人

发表于 2016-8-16 08:37:19 | 显示全部楼层
lopez超级喜欢,谢谢分享,谢谢

0

主题

24

帖子

103

积分

新人会员,请认真回复,若恶意回复,直接封号

Rank: 1

积分
103
发表于 2016-10-15 22:06:45 | 显示全部楼层
Jennifer Lopez Dance Again 1080iJennifer Lopez Dance Again 1080i
您需要登录后才可以回帖 登录 | 注册

本版积分规则

快速回复 返回顶部 返回列表