查看: 310|回复: 6

[MV] Jennifer Lopez feat. Iggy Azalea《Booty》2014/1080P/TS/BD

[复制链接]
 成长值: 19560

6460

主题

1万

帖子

8万

积分

音乐掌门人

Rank: 20Rank: 20Rank: 20Rank: 20Rank: 20

积分
83668

名人勋章社区QQ达人分享勋章精华帖达人灌水勋章

发表于 2016-7-20 17:06:29 | 显示全部楼层 |阅读模式

注册会员,获得无损资源下载地址,享受高品质音乐。

您需要 登录 才可以下载或查看,没有帐号?注册

x
thumbs20160720165733.jpg
thumbs20160720165817.jpg
thumbs20160720165929.jpg
Jennifer Lopez feat. Iggy Azalea - Booty

Жанр: Dance
Продолжительность: 04:13
Год выпуска: 2014
Описание: "Booty" is a song recorded by American entertainer Jennifer Lopez for her eighth studio album, A.K.A. (2014).
Качество: HDTV 1080i
Контейнер: TS
Видео кодек: MPEG2
Аудио кодек: AC3
Видео: MPEG2 1920x1080, 15.0 Mbps, 29.970 fps
Аудио: AC3, 384 Kbps, 48.0 KHz, 2 канала


General
ID                             : 1 (0x1)
Complete name                  : E:\Kлипы\Jennifer Lopez feat. Iggy Azalea - Booty.ts
Format                         : MPEG-TS
File size                      : 488 MiB
Duration                       : 4mn 12s
Overall bit rate mode          : Variable
Overall bit rate               : 16.2 Mbps
Law rating                     : TV-PG
Video
ID                             : 6411 (0x190B)
Menu ID                        : 1 (0x1)
Format                         : MPEG Video
Format version                 : Version 2
Format profile                 : [email protected]
Format settings, BVOP          : No
Format settings, Matrix        : Custom
Format settings, GOP           : M=3, N=15
Codec ID                       : 2
Duration                       : 4mn 12s
Bit rate mode                  : Variable
Bit rate                       : 15.0 Mbps
Maximum bit rate               : 16.0 Mbps
Width                          : 1 920 pixels
Height                         : 1 080 pixels
Display aspect ratio           : 16:9
Frame rate                     : 29.970 fps
Color space                    : YUV
Chroma subsampling             : 4:2:0
Bit depth                      : 8 bits
Scan type                      : Interlaced
Scan order                     : Top Field First
Compression mode               : Lossy
Bits/(Pixel*Frame)             : 0.241
Time code of first frame       : 00:00:00;00
Time code source               : Group of pictures header
Stream size                    : 451 MiB (93%)
Audio
ID                             : 6412 (0x190C)
Menu ID                        : 1 (0x1)
Format                         : AC-3
Format/Info                    : Audio Coding 3
Mode extension                 : CM (complete main)
Format settings, Endianness    : Big
Codec ID                       : 129
Duration                       : 4mn 12s
Bit rate mode                  : Constant
Bit rate                       : 384 Kbps
Channel(s)                     : 2 channels
Channel positions              : Front: L R
Sampling rate                  : 48.0 KHz
Bit depth                      : 16 bits
Compression mode               : Lossy
Delay relative to video        : 26ms
Stream size                    : 11.6 MiB (2%)
Language                       : English
Text
ID                             : 6411 (0x190B)-1
Menu ID                        : 1 (0x1)
Format                         : EIA-708
Muxing mode                    : A/53 / DTVCC Transport
Muxing mode, more info         : Muxed in Video #1
Duration                       : 4mn 12s
Bit rate mode                  : Constant
Stream size                    : 0.00 Byte (0%)

===============================
百度下载(阿战无损存储)
游客,如果您要查看本帖隐藏内容请回复
来自群组: 欧美流行



上一篇:Jennifer Lopez feat. Pitbull《On The Floor》2011/1080P/MP4/BD
下一篇:Jennifer Lopez - Greatest Hits Medley(The Ellen Degeneres Show)15.05.2015/1080i
关于链接失效的说明(度盘+115盘+快传 好友分享的说明)
http://www.cdbao.net/thread-117499-1-1.html     
紧急通告:115,快传等网盘取消了分享功能礼包码链接全部失效
http://www.cdbao.net/thread-122759-1-1.html

0

主题

45

帖子

-83

积分

恶意回复被扣没分了,积分增加方法见置顶帖

积分
-83
发表于 2016-7-20 17:36:57 | 显示全部楼层
谢谢分享谢谢分享谢谢分享谢谢分享谢谢分享谢谢分享

评分

参与人数 1CD -200 收起 理由
CDbao -200 本站禁一切垃圾无意义回复,请修改以往恶意.

查看全部评分

发表于 2016-7-20 23:53:41 | 显示全部楼层
Jennifer Lopez:90年代就风靡全球,以前是看LD,现在是BD,谢谢楼主提供!

0

主题

160

帖子

708

积分

职业歌手

Rank: 3Rank: 3

积分
708
发表于 2016-7-28 16:03:26 | 显示全部楼层
听听看这首怎么样啊,看一下啊呵呵

0

主题

53

帖子

117

积分

新人会员,请认真回复,若恶意回复,直接封号

Rank: 1

积分
117
发表于 2016-8-8 17:05:47 | 显示全部楼层
这个也是没谁了 真的很好啊  谢谢分享

0

主题

31

帖子

109

积分

新人会员,请认真回复,若恶意回复,直接封号

Rank: 1

积分
109

社区QQ达人

发表于 2016-8-17 11:28:29 | 显示全部楼层
这个不错的,谢谢应该非常好看呀

0

主题

10

帖子

86

积分

新人会员,请认真回复,若恶意回复,直接封号

Rank: 1

积分
86

社区QQ达人

发表于 7 天前 | 显示全部楼层
感谢楼主的分享                           
您需要登录后才可以回帖 登录 | 注册

本版积分规则

快速回复 返回顶部 返回列表